Ссылка на приватное зеркало нашего сайта всего за 1$. Внимание количество ограничено!!!

2 сезон

iTunes

1 сезон

1

2 сезон

2 сезон

iTunes

1 сезон

RePack

30

Ultimate

ВАЖНО

ИГРА 18+

pack

RePack

MK11
pack

Забери бонус

RePack

jed

!!Акция!!

Alien_Rage

RePack

fifa19

RePack

Assassins Creed: Odyssey

RePack

NEED FOR SPEED™ PAYBACK

4 сезон

9 сезон

Бесстыжие 9 сезон

Все сериалы

все сериалы на PB.wtf

RePack

FAR CRY 5
  

Морпехи / Jarhead (Сэм Мендес / Sam Mendes) [2005, боевик, драма, военный, WEB-DL 1080p] [Open Matte] [DUB+AVO] pb.wtf

Морпехи через торрент pb.wtf

Размер: 14 GB | Добавлен: 3 мес. 8 д. назад | Торрент скачан:31 раз
Скачать  

19-08-2020 17:31 Морпехи Скачать торрент  

Морпехи / Jarhead
Год выпуска: 2005
Страна: Германия, США
Жанр: боевик, драма, военный
Продолжительность: 02:02:49
Перевод 1: Профессиональный (полное дублирование)
Перевод 2: Авторский (одноголосый закадровый) - Ю. Немахов
Субтитры: русские (надписи, полные, комментарии), английские (полные SDH)

Режиссер: Сэм Мендес / Sam Mendes

В ролях: Джейк Джилленхол, Питер Сарсгаард, Джейми Фокс, Лукас Блэк, Брайан Джерати, Джейкоб Варгас, Лас Алонсо, Ивэн Джонс, Крис Купер, Деннис Хейсбёрт

Описание:
Действие картины разворачивается во время войны в Персидском заливе. Морской пехотинец Энтони Суоффорд — потомственный военный. После курса подготовки в специальном лагере его отправляют на Ближний Восток, где идут военные действия.
Со снайперской винтовкой в руках и с тяжелым рюкзаком за плечами ему предстоит проделать нелегкий путь по пустыне, где нет спасения от невыносимой жары и иракских солдат, которые в любую минуту могут появиться на горизонте.
Суоффорд и его друзья-однополчане делают все возможное, чтобы поддержать друг друга в этой сложной обстановке. Чувствуя себя совершенно чужими в этой стране, они вынуждены сражаться с невидимым врагом за неведомые им идеалы…



Качество: WEB-DL 1080p
Формат: MKV
Видео: MPEG4 Video (H264) 1920x1080 23.976fps ~11503Kbps
Аудио#1: 48 kHz, DTS, 3/2 (L,C,R,l,r) + LFE ch, ~768.00 kbps avg |Дубляж - Blu-ray CEE|
Аудио#2: 48 kHz, DTS, 3/2 (L,C,R,l,r) + LFE ch, ~1536.00 kbps avg |Авторский, одноголосый - Ю. Немахов|
Аудио#3: 48 kHz, DTS, 3/2 (L,C,R,l,r) + LFE ch, ~1536.00 kbps avg |Оригинал - BluRay|
Аудио#4: 48 kHz, E-AC3, 3/2 (L,C,R,l,r) + LFE ch, ~640.00 kbps avg |Оригинал - Amazon|
Аудио#5: 48 kHz, AC3, 2.0 (L,R) ch, ~192.00 kbps avg |Commentary with director Sam Mendes|
Аудио#6: 48 kHz, AC3, 2.0 (L,R) ch, ~192.00 kbps avg |Commentary with screenwriter Wiiliam Broyles, Jr. and author Anthony Swofford|
Субтитры: SoftSub (SRT)
Главы: 20 шт. (подписанные)

General
Unique ID : 200887853721761382701184513044609999120 (0x972197E2285D99D58670E870C0FBA110)
Complete name : D:\Видео\HD\Jarhead.2005.Open.Matte.1080p.WEB-DL.2xRus.Eng.mkv
Format : Matroska
Format version : Version 4 / Version 2
File size : 14.0 GiB
Duration : 2 h 2 min
Overall bit rate mode : Variable
Overall bit rate : 16.3 Mb/s
Movie name : Jarhead.2005.Open.Matte.1080p.WEB-DL.2xRus.Eng-spartanec163
Encoded date : UTC 2017-09-23 14:27:30
Writing application : mkvmerge v8.3.0 ('Over the Horizon') 64bit
Writing library : libebml v1.3.1 + libmatroska v1.4.2

Video
ID : 1
Format : AVC
Format/Info : Advanced Video Codec
Format profile : High@L4
Format settings, CABAC : Yes
Format settings, RefFrames : 4 frames
Codec ID : V_MPEG4/ISO/AVC
Duration : 2 h 2 min
Bit rate mode : Variable
Bit rate : 11.5 Mb/s
Maximum bit rate : 15.0 Mb/s
Width : 1 920 pixels
Height : 1 080 pixels
Display aspect ratio : 16:9
Frame rate mode : Constant
Frame rate : 23.976 (24000/1001) FPS
Color space : YUV
Chroma subsampling : 4:2:0
Bit depth : 8 bits
Scan type : Progressive
Bits/(Pixel*Frame) : 0.231
Stream size : 9.87 GiB (70%)
Title : WEB-DL 1080p (Amazon)
Language : English
Default : Yes
Forced : No
Color range : Limited
Color primaries : BT.709
Transfer characteristics : BT.709
Matrix coefficients : BT.709

Audio #1
ID : 2
Format : DTS
Format/Info : Digital Theater Systems
Mode : 16
Format settings, Endianness : Big
Codec ID : A_DTS
Duration : 2 h 2 min
Bit rate mode : Constant
Bit rate : 768 kb/s
Channel(s) : 6 channels
Channel positions : Front: L C R, Side: L R, LFE
Sampling rate : 48.0 kHz
Frame rate : 93.750 FPS (512 SPF)
Bit depth : 24 bits
Compression mode : Lossy
Stream size : 675 MiB (5%)
Title : DTS 5.1 786Kbps (Дубляж - Blu-ray CEE)
Language : Russian
Default : Yes
Forced : No

Audio #2
ID : 3
Format : DTS
Format/Info : Digital Theater Systems
Mode : 16
Format settings, Endianness : Big
Codec ID : A_DTS
Duration : 2 h 2 min
Bit rate mode : Constant
Bit rate : 1 509 kb/s
Channel(s) : 6 channels
Channel positions : Front: L C R, Side: L R, LFE
Sampling rate : 48.0 kHz
Frame rate : 93.750 FPS (512 SPF)
Bit depth : 24 bits
Compression mode : Lossy
Stream size : 1.29 GiB (9%)
Title : DTS 5.1 1536Kbps (Авторский, одноголосый - Ю. Немахов)
Language : Russian
Default : No
Forced : No

Audio #3
ID : 4
Format : DTS
Format/Info : Digital Theater Systems
Mode : 16
Format settings, Endianness : Big
Codec ID : A_DTS
Duration : 2 h 2 min
Bit rate mode : Constant
Bit rate : 1 509 kb/s
Channel(s) : 6 channels
Channel positions : Front: L C R, Side: L R, LFE
Sampling rate : 48.0 kHz
Frame rate : 93.750 FPS (512 SPF)
Bit depth : 24 bits
Compression mode : Lossy
Stream size : 1.29 GiB (9%)
Title : DTS 5.1 1536Kbps (Оригинал - BluRay)
Language : English
Default : No
Forced : No

Audio #4
ID : 5
Format : E-AC-3
Format/Info : Enhanced Audio Coding 3
Format settings, Endianness : Big
Codec ID : A_EAC3
Duration : 2 h 2 min
Bit rate mode : Constant
Bit rate : 640 kb/s
Channel(s) : 6 channels
Channel positions : Front: L C R, Side: L R, LFE
Sampling rate : 48.0 kHz
Frame rate : 187.500 FPS (256 SPF)
Compression mode : Lossy
Stream size : 562 MiB (4%)
Title : E-AC3 5.1 640Kbps (Оригинал - Amazon)
Language : English
Service kind : Complete Main
Default : No
Forced : No

Audio #5
ID : 6
Format : AC-3
Format/Info : Audio Coding 3
Format settings, Endianness : Big
Codec ID : A_AC3
Duration : 2 h 2 min
Bit rate mode : Constant
Bit rate : 192 kb/s
Channel(s) : 2 channels
Channel positions : Front: L R
Sampling rate : 48.0 kHz
Frame rate : 31.250 FPS (1536 SPF)
Bit depth : 16 bits
Compression mode : Lossy
Stream size : 169 MiB (1%)
Title : AC3 2.0 192Kbps (Commentary with director Sam Mendes)
Language : English
Service kind : Complete Main
Default : No
Forced : No

Audio #6
ID : 7
Format : AC-3
Format/Info : Audio Coding 3
Format settings, Endianness : Big
Codec ID : A_AC3
Duration : 2 h 2 min
Bit rate mode : Constant
Bit rate : 192 kb/s
Channel(s) : 2 channels
Channel positions : Front: L R
Sampling rate : 48.0 kHz
Frame rate : 31.250 FPS (1536 SPF)
Bit depth : 16 bits
Compression mode : Lossy
Stream size : 169 MiB (1%)
Title : AC3 2.0 192Kbps (Commentary with screenwriter Wiiliam Broyles, Jr. and author Anthony Swofford)
Language : English
Service kind : Complete Main
Default : No
Forced : No

Text #1
ID : 8
Format : UTF-8
Codec ID : S_TEXT/UTF8
Codec ID/Info : UTF-8 Plain Text
Duration : 1 h 50 min
Bit rate : 3 b/s
Count of elements : 43
Stream size : 2.58 KiB (0%)
Title : Captions
Language : Russian
Default : Yes
Forced : No

Text #2
ID : 9
Format : UTF-8
Codec ID : S_TEXT/UTF8
Codec ID/Info : UTF-8 Plain Text
Duration : 1 h 53 min
Bit rate : 80 b/s
Count of elements : 1397
Stream size : 67.2 KiB (0%)
Title : Full
Language : Russian
Default : No
Forced : No

Text #3
ID : 10
Format : UTF-8
Codec ID : S_TEXT/UTF8
Codec ID/Info : UTF-8 Plain Text
Duration : 2 h 1 min
Bit rate : 61 b/s
Count of elements : 1757
Stream size : 55.1 KiB (0%)
Title : Full, SDH
Language : English
Default : No
Forced : No

Text #4
ID : 11
Format : UTF-8
Codec ID : S_TEXT/UTF8
Codec ID/Info : UTF-8 Plain Text
Duration : 1 h 56 min
Bit rate : 210 b/s
Count of elements : 2134
Stream size : 179 KiB (0%)
Title : Commentary with director Sam Mendes
Language : Russian
Default : No
Forced : No

Text #5
ID : 12
Format : UTF-8
Codec ID : S_TEXT/UTF8
Codec ID/Info : UTF-8 Plain Text
Duration : 1 h 56 min
Bit rate : 197 b/s
Count of elements : 2164
Stream size : 169 KiB (0%)
Title : Commentary with screenwriter Wiiliam Broyles, Jr. and author Anthony Swoffor
Language : Russian
Default : No
Forced : No

Menu
00:00:00.000 : en:Fresh Meat
00:06:35.186 : en:Do You Have What It Takes?
00:12:41.677 : en:Getting the Fear Out
00:15:57.205 : en:Scout Sniper
00:17:43.478 : en:Operation Desert Shield
00:24:57.203 : en:Crude Politics
00:32:12.888 : en:Freedom of Speech
00:38:05.490 : en:A Small Demonstration
00:42:47.480 : en:Messages From Home
00:53:17.108 : en:No Standard Solution
00:57:51.757 : en:Happy Holidays
01:03:54.703 : en:First Contact
01:09:35.376 : en:Operation Desert Storm
01:17:58.629 : en:Commence Combat
01:23:00.263 : en:Hell of a Day
01:28:33.095 : en:I Love This Job
01:36:27.152 : en:Taking Orders
01:44:07.528 : en:My War
01:49:19.589 : en:Welcome Home
01:53:58.034 : en:End Titles

скриншот  скриншот  скриншот  
pb.wtf



Скачать Морпехи через торрент http://i2.imageban.ru/out/2017/09/24/ca4d6c64bae073cacc1930fcff4a8efc.jpg Скачать фильм Морпехи через торрент бесплантно в хорошем качестве Описание: Действие картины разворачивается во время войны в Персидском заливе. Морской пехотинец Энтони Суоффорд — потомственный военный. ... 9.4 10 5
Торрент: Зарегистрирован [2020-08-19 17:31] · скачан: 31 раз
Статус: √ проверено
Размер: 14 GB
Как cкачать? Как скачать Морпехи через торрент | qTorrent

% Раздел Тема Автор DL S | L
T Фильмы 2019-2020 [DVDrip, WEB-DLRip, HDrip] (DUB, MVO) [ 1.45 GB ] Морпехи: Закон о репатриации / Jarhead: Law of Return [2019 Военный HDRip-AVC] [MVO] [@MUZOBOZ@] от MediaBit Lithuania Скачать
6 | 0
Фильмы [HD 720p, 1080p] (Хороший звук DUB, MVO) [ 10.64 GB ] Морпехи 3: В осаде / Jarhead 3: The Siege [2016 BDRip ] Бумер Скачать
1 | 0
Фильмы 2016 [DVDrip, WEB-DLRip, HDrip] (DUB, MVO) [ 2.18 GB ] Морпехи 3: В осаде / Jarhead 3: The Siege [2016 военный BDRip-AVC от sokol_ok] DUB sokol_ok Скачать
2 | 0
Фильмы 2016 [DVDrip, WEB-DLRip, HDrip] (DUB, MVO) [ 1.45 GB ] Морпехи 3: В осаде / Jarhead 3: The Siege [2016 военный BDRip-AVC от sokol_ok] DUB sokol_ok Скачать
2 | 0
Фильмы 2016 [DVDrip, WEB-DLRip, HDrip] (DUB, MVO) [ 1.81 GB ] Морпехи 3: В осаде / Jarhead 3: The Siege [2016 военный BDRip-AVC от ExKinoRay DUB ] Ворон Скачать
1 | 0
Фильмы 2016 [DVDrip, WEB-DLRip, HDrip] (DUB, MVO) [ 2.18 GB ] Морпехи 3: В осаде / Jarhead 3: The Siege [2016 военный BDRip-AVC] DUB potroks Скачать
1 | 0
Фильмы (Blu-ray, BD-Remux, HDDVD) [ 30.71 GB ] Морпехи 3: В осаде / Jarhead 3: The Siege [2016 Blu-ray ] Бумер Скачать
1 | 1

28-11-2019 20:33  

Отключить всю рекламу на сайте

    Дорогой пользователь! Огромная просьба, поблагодарите релизера, оцените раздачу и оставьте свои комментарий, если Вы скачали Морпехи через торрент бесплатно! Внесите свою лепту в развитие PiratBit!
    Комментировать посты могут только пользователи прошедшие не сложную регистрацию
    Показать сообщения:    

    Морпехи через торрент
    Скачать бесплатно Морпехи
    Морпехи скачать торрент
    Морпехи смотреть онлайн
    Cкачать фильм Морпехи бесплатно
    Морпехи скачать торрент в хорошем качестве
    Морпехи смотреть онлайн бесплатно в хорошем качестве


    Вы не можете начинать темы
    Вы не можете отвечать на сообщения
    Вы не можете редактировать свои сообщения
    Вы не можете удалять свои сообщения
    Вы не можете голосовать в опросах
    Вы не можете прикреплять файлы к сообщениям
    Вы можете скачивать файлы