Ссылка на приватное зеркало нашего сайта всего за 1$. Внимание количество ограничено!!!

2 сезон

iTunes

1 сезон

1

2 сезон

2 сезон

iTunes

1 сезон

RePack

30

Ultimate

ВАЖНО

ИГРА 18+

pack

RePack

MK11
pack

Забери бонус

RePack

jed

!!Акция!!

Alien_Rage

RePack

fifa19

RePack

Assassins Creed: Odyssey

RePack

NEED FOR SPEED™ PAYBACK

4 сезон

9 сезон

Бесстыжие 9 сезон

Все сериалы

все сериалы на PB.wtf

RePack

FAR CRY 5
  

Один день лета (Александр Игудин) [2018, комедия, WEB-DLRip-AVC] [RUS] [IVI] pb.wtf

Один день лета через торрент pb.wtf

Размер: 751 MB | Добавлен: 3 мес. 3 д. назад | Торрент скачан:106 раз
Скачать  

20-08-2020 18:54 Один день лета Скачать торрент  


Один день лета
Информация о фильме:
Название: Один день лета
Год выхода: 2018
Жанр: комедия
Режиссер: Александр Игудин

В ролях: Татьяна Бабенкова, Алексы Коморовский, Степан Ледков, Игорь Иванов, Максим Леонидов, Юрий Гальцев, Иван Краско, Эра Зиганшина, Геннадий Смирнов, Маргарита Аброськина, Анастасия Лазо, Тина Тарусина, Алексей Копылов, Егор Бакулин

Описание: Вся жизнь недавней провинциалки, а теперь москвички Кати — одно сплошное селфи с чередой знаменитостей. Любые интриги ради лайка, любые подвиги во имя статуса «звезды инстаграм». Но количества подписчиков по-прежнему недостаточно, и ради заветной цели она отправляется в Санкт-Петербург, чтобы сделать селфи с загадочным художником, скрывающим свою личность, и тем самым взорвать интернет. А в это время в аэропорту солидный незнакомец просит Катю передать неизвестному ей адресату обычный конверт. Выполнение этого поручения не только рушит ее планы, но и в результате всего лишь за один день в корне меняет ее взгляды на жизнь.



Страна: Россия
Студия: Ленфильм
Продолжительность: 01:38:12
Перевод: Оригинал - Цифровая лицензия IVI



Информация о файле:
Кодек: AVC
Формат: MKV
Качество: WEB-DLRip-AVC
Видео: MPEG-4 AVC, 768x432 (16:9), 973 Кбит/сек, 25.000 fps, 0.117
Аудио RU: AAC-HE, 2 ch, 48 kHz, 96 kbps

|


Общее
Уникальный идентификатор : 57490685425162658352772985159773446924 (0x2B404DA2571F77D05EE7EA82F3B1E30C)
Полное имя : D:uTorrentРипы_от_wolf1245_MediaBit.Один день лета (2018)_WEB-DLRip-AVC_wolf1245_MediaBit.mkv
Формат : Matroska
Версия формата : Version 4
Размер файла : 751 Мбайт
Продолжительность : 1 ч. 38 м.
Общий поток : 1 069 Кбит/сек
Название фильма : Один день лета (2018)_WEB-DLRip-AVC_wolf1245_MediaBit
Дата кодирования : UTC 2020-08-20 18:44:08
Программа кодирования : mkvmerge v49.0.0 ('Sick Of Losing Soulmates') 64-bit
Библиотека кодирования : libebml v1.4.0 + libmatroska v1.6.1
Обложка : Yes
Attachments : Cover.png

Видео
Идентификатор : 1
Формат : AVC
Формат/Информация : Advanced Video Codec
Профиль формата : High@L4.1
Настройки формата : CABAC / 12 Ref Frames
Параметр CABAC формата : Да
Параметр RefFrames формата : 12 кадров
Идентификатор кодека : V_MPEG4/ISO/AVC
Продолжительность : 1 ч. 38 м.
Битрейт : 973 Кбит/сек
Ширина : 768 пикселей
Высота : 432 пикселя
Соотношение сторон : 16:9
Режим частоты кадров : Постоянный
Частота кадров : 25,000 кадров/сек
Цветовое пространство : YUV
Субдискретизация насыщенности : 4:2:0
Битовая глубина : 8 бит
Тип развёртки : Прогрессивная
Бит/(Пиксели*Кадры) : 0.117
Размер потока : 682 Мбайт (91%)
Заголовок : wolf1245_MediaBit
Библиотека кодирования : x264 core 157 r2958 57baac4
Настройки программы : cabac=1 / ref=12 / deblock=1:-3:-3 / analyse=0x3:0x133 / me=umh / subme=11 / psy=1 / psy_rd=1.00:0.15 / mixed_ref=1 / me_range=48 / chroma_me=1 / trellis=2 / 8x8dct=1 / cqm=0 / deadzone=21,11 / fast_pskip=0 / chroma_qp_offset=-3 / threads=10 / lookahead_threads=2 / sliced_threads=0 / nr=0 / decimate=0 / interlaced=0 / bluray_compat=0 / constrained_intra=0 / bframes=12 / b_pyramid=2 / b_adapt=2 / b_bias=12 / direct=3 / weightb=1 / open_gop=0 / weightp=2 / keyint=250 / keyint_min=25 / scenecut=40 / intra_refresh=0 / rc_lookahead=60 / rc=2pass / mbtree=0 / bitrate=973 / ratetol=1.0 / qcomp=0.60 / qpmin=0 / qpmax=69 / qpstep=4 / cplxblur=20.0 / qblur=0.5 / vbv_maxrate=50000 / vbv_bufsize=62500 / nal_hrd=none / filler=0 / ip_ratio=1.40 / pb_ratio=1.30 / aq=1:1.00
Язык : Russian
Default : Да
Forced : Нет
Цветовой диапазон : Limited

Аудио
Идентификатор : 2
Формат : AAC LC SBR
Формат/Информация : Advanced Audio Codec Low Complexity with Spectral Band Replication
Коммерческое название : HE-AAC
Настройки формата : Implicit
Идентификатор кодека : A_AAC-2
Продолжительность : 1 ч. 38 м.
Битрейт : 96,0 Кбит/сек
Каналы : 2 канала
Channel layout : L R
Частота : 48,0 КГц
Частота кадров : 23,438 кадра/сек (2048 SPF)
Метод сжатия : С потерями
Размер потока : 67,4 Мбайт (9%)
Заголовок : Цифровая лицензия IVI
Язык : Russian
Default : Да
Forced : Нет
Рип от: &
pb.wtf



Скачать Один день лета через торрент https://b.radikal.ru/b34/2008/89/2a2ecd3f2fd1.png Скачать фильм Один день лета через торрент бесплантно в хорошем качестве Описание: Вся жизнь недавней провинциалки, а теперь москвички Кати — одно сплошное селфи с чередой знаменитостей. Любые интриги ради ... 10 10 6
Торрент: Зарегистрирован [2020-08-20 18:54] · скачан: 106 раз
Статус: √ проверено
Размер: 751 MB
Как cкачать? Как скачать Один день лета через торрент | qTorrent

% Раздел Тема Автор DL S | L
T Наши фильмы (мультфильмы) cо спонсором показа (Новинки AVI/MKV) [ 2.65 GB ] Один день лета [2018 музыка TS 720p] bober100 Скачать
1 | 0
T Наши фильмы (мультфильмы) cо спонсором показа (Новинки AVI/MKV) [ 1.37 GB ] Один день лета [2018 музыка TS] bober100 Скачать
1 | 0
Наши новые фильмы 2012 [ 1.4 GB ] Пять лет и один день [2012 SATRip] -=Cherry=- Скачать
1 | 0

28-11-2019 20:33  

Отключить всю рекламу на сайте

    Дорогой пользователь! Огромная просьба, поблагодарите релизера, оцените раздачу и оставьте свои комментарий, если Вы скачали Один день лета через торрент бесплатно! Внесите свою лепту в развитие PiratBit!
    Комментировать посты могут только пользователи прошедшие не сложную регистрацию
    Показать сообщения:    

    Один день лета через торрент
    Скачать бесплатно Один день лета
    Один день лета скачать торрент
    Один день лета смотреть онлайн
    Cкачать фильм Один день лета бесплатно
    Один день лета скачать торрент в хорошем качестве
    Один день лета смотреть онлайн бесплатно в хорошем качестве


    Вы не можете начинать темы
    Вы не можете отвечать на сообщения
    Вы не можете редактировать свои сообщения
    Вы не можете удалять свои сообщения
    Вы не можете голосовать в опросах
    Вы не можете прикреплять файлы к сообщениям
    Вы можете скачивать файлы