Ссылка на приватное зеркало нашего сайта всего за 1$. Внимание количество ограничено!!!

2 сезон

iTunes

1 сезон

1

iTunes

iTunes

iTunes

1 сезон

RePack

30

ИГРА 18+

pack

ВАЖНО

!!Акция!!

Alien_RageХит недели

RePack

MK11
pack

Забери бонус

RePack

jed

!!Акция!!

Alien_Rage

RePack

fifa19

RePack

Assassins Creed: Odyssey

RePack

NEED FOR SPEED™ PAYBACK

4 сезон

9 сезон

Бесстыжие 9 сезон

Все сериалы

все сериалы на PB.wtf

RePack

FAR CRY 5
  

Пила 7 / Saw: The Final Chapter / Saw VII (Кевин Гротерт / Kevin Greutert) [2010, ужасы, триллер, детектив BDRip 720p] [Unrated] pb.wtf

Пила 7 через торрент pb.wtf

Размер: 6.56 GB | Добавлен: 9 лет 8 мес. назад | Торрент скачан:49 раз
Скачать  

02-02-2011 18:48 Пила 7 Скачать торрент  

Пила VII / Saw: The Final Chapter / Saw VII Unrated Version«Ловушки оживают»
Год выпуска: 2010
Страна: США
Жанр: ужасы, триллер, детектив
Продолжительность: 01:30:00

  • Перевод: Профессиональный (дубляж)
  • Русские субтитры: есть
  • Формат субтитров: srt
  • Оригинальная аудиодорожка: Английская

Режиссер: Кевин Гротерт / Kevin Greutert
В ролях:
Костас Мэндилор, Шон Патрик Флэнери, Тобин Белл, Кэри Элвис, Бетси Расселл, Дин Армстронг, Чэд Донелла, Джина Холден, Наоми Сникус, Ребекка Маршалл, Джеймс Ван Паттен, Себастьян Пижотт
Описание:
Жертвы Пилы, выжившие в предыдущих испытаниях, обращаются за психологической помощью к товарищу по несчастью Бобби Дагену. Но когда его собственные темные тайны всплывают на свет, развязывается новая волна террора.

  • Качество: BDRip| | Формат: MKV
  • Видео кодек: h.264 | Аудио кодек: DTS
  • Видео: H264 / 6940 kbps / 1280х720 / 23,976 fps / High Profile 4.1
  • Аудио 1: Русский дубляж DTS / 5.1 / 48 kHz / 1536 kbps / 24-bit
  • Аудио 2: Английский DTS / 5.1 / 1536 kbps / 48 kHz / 24-bit
  • Аудио 3: Английский Dolby Digital / 2.0 / 48 kHz / 224 kbps комментарии (Oren Koules, Peter Block, Mark Burg)
  • Аудио 4: Английский Dolby Digital / 2.0 / 48 kHz / 224 kbps комментарии (Patrick Melton, Marcus Dunstan)
  • Cубтитры: Русские, Английские
  • Чаптеры: 16 шт.

Полное имя : Saw.VII.2010.Blu-ray.720p.x264.Rus.Eng.mkv
Формат : Matroska
Размер файла : 6,56 Гбайт
Продолжительность : 1 ч. 30 м.
Общий поток : 10,4 Мбит/сек
Дата кодирования : UTC 2011-02-02 07:30:05
Программа кодирования : mkvmerge v4.4.0 ('Die Wiederkehr') сборка от Oct 31 2010 21:52:48
Библиотека кодирования : libebml v1.0.0 + libmatroska v1.0.0

Видео
Идентификатор : 1
Формат : AVC
Формат/Информация : Advanced Video Codec
Профиль формата : High@L4.1
Параметр CABAC формата : Да
Параметр ReFrames формата : 8 кадры
Идентификатор кодека : V_MPEG4/ISO/AVC
Продолжительность : 1 ч. 30 м.
Битрейт : 6940 Кбит/сек
Ширина : 1280 пикс.
Высота : 720 пикс.
Соотношение сторон : 16:9
Частота кадров : 23,976 кадр/сек
Цветовое пространство : YUV
Подвыборка цветности : 4:2:0
Битовая глубина : 8 бит
Тип развёртки : Прогрессивная
Бит/(Пиксели*Кадры) : 0.314
Размер потока : 4,24 Гбайт (65%)
Заголовок : Saw.VII.2010.Blu-ray.720p.x264
Библиотека кодирования : x264 core 113 r1884 7313bb5
Настройки программы : cabac=1 / ref=8 / deblock=1:-3:-3 / analyse=0x3:0x113 / me=esa / subme=10 / psy=1 / psy_rd=1.00:0.00 / mixed_ref=1 / me_range=32 / chroma_me=1 / trellis=2 / 8x8dct=1 / cqm=0 / deadzone=21,11 / fast_pskip=0 / chroma_qp_offset=-2 / threads=12 / sliced_threads=0 / nr=0 / decimate=1 / interlaced=0 / constrained_intra=0 / bframes=10 / b_pyramid=2 / b_adapt=2 / b_bias=0 / direct=3 / weightb=1 / open_gop=0 / weightp=2 / keyint=250 / keyint_min=23 / scenecut=40 / intra_refresh=0 / rc_lookahead=60 / rc=2pass / mbtree=0 / bitrate=6940 / ratetol=1.0 / qcomp=0.70 / qpmin=10 / qpmax=69 / qpstep=4 / cplxblur=20.0 / qblur=0.5 / vbv_maxrate=50000 / vbv_bufsize=62500 / nal_hrd=none / ip_ratio=1.40 / pb_ratio=1.30 / aq=1:1.00
Язык : English
Коэффициенты матрицы : BT.709-5, BT.1361, IEC 61966-2-4 709, SMPTE RP177

Аудио #1
Идентификатор : 2
Формат : DTS
Формат/Информация : Digital Theater Systems
Идентификатор кодека : A_DTS
Продолжительность : 1 ч. 30 м.
Вид битрейта : Постоянный
Битрейт : 1510 Кбит/сек
Канал(ы) : 6 канала(ов)
Расположение каналов : Front: L C R, Side: L R, LFE
Частота : 48,0 КГц
Битовая глубина : 24 бит
Метод сжатия : С потерями
Размер потока : 974 Мбайт (15%)
Заголовок : Dub
Язык : Russian

Аудио #2
Идентификатор : 3
Формат : DTS
Формат/Информация : Digital Theater Systems
Идентификатор кодека : A_DTS
Продолжительность : 1 ч. 30 м.
Вид битрейта : Постоянный
Битрейт : 1510 Кбит/сек
Канал(ы) : 6 канала(ов)
Расположение каналов : Front: L C R, Side: L R, LFE
Частота : 48,0 КГц
Битовая глубина : 24 бит
Метод сжатия : С потерями
Размер потока : 974 Мбайт (15%)
Язык : English

Аудио #3
Идентификатор : 4
Формат : AC-3
Формат/Информация : Audio Coding 3
Профиль формата : Dolby Digital
Расширение режима : CM (complete main)
Идентификатор кодека : A_AC3
Продолжительность : 1 ч. 30 м.
Вид битрейта : Постоянный
Битрейт : 224 Кбит/сек
Канал(ы) : 2 канала(ов)
Расположение каналов : Front: L R
Частота : 48,0 КГц
Битовая глубина : 16 бит
Метод сжатия : С потерями
Размер потока : 144 Мбайт (2%)
Заголовок : Commentary with Oren Koules, Peter Block, Mark Burg
Язык : English

Аудио #4
Идентификатор : 5
Формат : AC-3
Формат/Информация : Audio Coding 3
Профиль формата : Dolby Digital
Расширение режима : CM (complete main)
Идентификатор кодека : A_AC3
Продолжительность : 1 ч. 30 м.
Вид битрейта : Постоянный
Битрейт : 224 Кбит/сек
Канал(ы) : 2 канала(ов)
Расположение каналов : Front: L R
Частота : 48,0 КГц
Битовая глубина : 16 бит
Метод сжатия : С потерями
Размер потока : 144 Мбайт (2%)
Заголовок : Commentary with Patrick Melton, Marcus Dunstan
Язык : English

Текст #1
Идентификатор : 6
Формат : UTF-8
Идентификатор кодека : S_TEXT/UTF8
Идентификатор кодека/Информация : UTF-8 Plain Text
Язык : Russian

Текст #2
Идентификатор : 7
Формат : UTF-8
Идентификатор кодека : S_TEXT/UTF8
Идентификатор кодека/Информация : UTF-8 Plain Text
Язык : English

Меню
00:00:00.000 : en:Public Announcement
00:05:13.480 : en:Love Triangle
00:12:58.653 : en:Reborn
00:17:16.786 : en:Worst Nightmare
00:22:07.743 : en:Finding the Positive
00:27:29.231 : en:Expecting You
00:36:06.956 : en:New Game
00:43:04.207 : en:We've Met
00:47:54.413 : en:Hold On
00:52:00.826 : en:Hears No Evil
00:57:09.926 : en:Beyond the Crossroads
01:03:09.077 : en:I Lied
01:10:28.891 : en:Back in Action
01:14:13.574 : en:How Do I Look?
01:19:01.153 : en:Time's Up
01:23:47.189 : en:Game Over

  • Вместо обычных 9 недель, стадия препродакшена длилась 21 неделю.
  • Фильм запрещен к показу в Украине.
  • Сценаристы Патрик Мелтон и Маркус Данстэн придумали ловушку «Гараж» еще при написании сценария к четвертому фильму, однако продюсеры посчитали ее слишком жестокой. Сценаристы пытались вставить ловушку в пятом и шестом фильме, однако использовать ее удалось только в седьмой части с личной просьбы Кевина Гротерта, режиссера фильма.
  • Только в этой части «Пилы» можно увидеть, как человек умирает от механизма «Разрывателя челюсти». В предыдущих фильмах жертвам удавалось избавиться от ловушки.

Source-------------------------------------------Рип





pb.wtf



Скачать Пила 7 через торрент http://i14.fastpic.ru/big/2010/1230/5a/a3fcc200f1ebcee5b503e2d67d17195a.jpg Скачать фильм Пила 7 через торрент бесплантно в хорошем качестве Описание:Жертвы Пилы, выжившие в предыдущих испытаниях, обращаются за психологической помощью к товарищу по несчастью Бобби Дагену. Но ... 10 10 5
Info! Золотая раздача, скачанное не засчитывается.
Торрент: Зарегистрирован [2011-02-02 18:48] · скачан: 49 раз
Статус: √ проверено
Размер: 6.56 GB
Как cкачать? Как скачать Пила 7 через торрент | qTorrent



Последний раз редактировалось: diletant (2011-02-02 19:25), всего редактировалось 1 раз

28-11-2019 20:33  

Отключить всю рекламу на сайте

02-02-2011 18:50 Пила 7 Скачать торрент  

Замена этому рипу, с автором согласовано.pb.wtf



02-02-2011 19:03 Пила 7 Скачать торрент  

с автором согласовано pb.wtf



02-02-2011 19:09 Пила 7 Скачать торрент  

согласился без раздумия :ad:pb.wtf



02-02-2011 19:12 Пила 7 Скачать торрент  

а в чём отличие от предыдущей раздачи?pb.wtf



02-02-2011 19:31 Пила 7 Скачать торрент  

Ilya N писал(а):

а в чём отличие от предыдущей раздачи?

Добавлены англ. дороги с коментариями, и на качество картинки обратите вниманиеpb.wtf



    Дорогой пользователь! Огромная просьба, поблагодарите релизера, оцените раздачу и оставьте свои комментарий, если Вы скачали Пила 7 через торрент бесплатно! Внесите свою лепту в развитие PiratBit!
    Комментировать посты могут только пользователи прошедшие не сложную регистрацию
    Показать сообщения:    

    Пила 7 через торрент
    Скачать бесплатно Пила 7
    Пила 7 скачать торрент
    Пила 7 смотреть онлайн
    Cкачать фильм Пила 7 бесплатно
    Пила 7 скачать торрент в хорошем качестве
    Пила 7 смотреть онлайн бесплатно в хорошем качестве


    Вы не можете начинать темы
    Вы не можете отвечать на сообщения
    Вы не можете редактировать свои сообщения
    Вы не можете удалять свои сообщения
    Вы не можете голосовать в опросах
    Вы не можете прикреплять файлы к сообщениям
    Вы можете скачивать файлы