Достать ножи: Стеклянная луковица

MVO

Добыча

Дубляж

Уэнсдэй

1 сезон

Тор

Дубляж

13 клиническая

1 сезон

Жестокая ночь

MVO

Одни из нас

1 сезон

Deluxe

pack

Рекомендуем

30

Пиратка

ВАЖНО

ВАЖНО

Ghostwire

Пиратка

jed

RePack

nioh2

RePack

RDR2

RePack

NEED FOR SPEED™ PAYBACK

RePack

скачать торрент

Кинопоиск HD

Острые козырьки 6 сезон

6 сезон

FAR CRY 6

RePack

скачать торрент

Лицензия

скачать торрент

MVO

1

1 сезон

скачать торрент

1 сезон

скачать торрент

Лицензия

  

Расширенная вселенная DC - DC Extended Universe [2013 - .... фантастика, фэнтези, боевик, приключения, BDRip - HEVC 1080p 10 bit 60 FPS Дубляж, MVO]

Расширенная вселенная DC - DC Extended Universe через торрент pb.wtf

Раздают: 1 [ 188 KB/s ] Качают: 5 [ 0 KB/s ]
Размер: 69.46 GB | Добавлен: 1 мес. 27 д. назад | Торрент скачан:8 раз
| Скачать | Поддержите нас   

21-08-2020 17:16 Расширенная вселенная DC - DC Extended Universe Скачать торрент  

«Расширенная вселенная DC» / DC Extended Universe


«Расширенная вселенная DC» (англ. DC Extended Universe) — американская медиафраншиза, вымышленная общая вселенная, серия фильмов о супергероях, основанная на комиксах компании DC Comics, разрабатываемая студией DC Films и выпускаемая компанией Warner Bros. Pictures. Во франшизу также входят телесериалы, короткометражные фильмы, книжная продукция и видеоигры. Как и оригинальная вселенная DC, расширенная вселенная DC была создана путём соединения в общую сюжетную линию нескольких фильмов и сериалов с общими актёрами, персонажами и событиями.
Хронология событий киновселенной

Wonder Woman
«Справедливость наступит вместе с ней»


Год выпуска: 2017
Страна: США, Китай, Гонконг, Великобритания, Италия, Канада, Новая Зеландия
Жанр: фантастика, боевик, приключения

Продолжительность: 02:21:15
Перевод: Дублированный | iTunes
Субтитры: русские

Режиссер: Пэтти Дженкинс
В ролях: Галь Гадот, Робин Райт, Дэвид Тьюлис, Конни Нильсен, Крис Пайн, Елена Анайя, Люси Дэвис, Юэн Бремнер, Даутцен Крёз, Дэнни Хьюстон

Описание: Перед тем как стать Чудо-Женщиной, она была Дианой — принцессой амазонок, обученной быть непобедимой воительницей. И когда на берегах ограждённого от внешнего мира райского острова, который служил ей родиной, терпит крушение американский пилот и рассказывает о серьёзном конфликте, бушующем во внешнем мире, Диана покидает свой дом, чтобы справиться с этой угрозой. И там, сражаясь бок о бок с человеком в войне за мир, Диана обнаружит всю полноту своей власти… и своё истинное предназначение.

Мировая премьера: 15 мая 2017


Качество: BDRip 1080p Rip by DD2D3
Формат: MKV
Видео: V_MPEGH/ISO/HEVC;1920x800 (2.40:1);4003 Kbps;59,940 fps;0.043 bpp
Аудио: русский; AC3; 448 Kbps; CBR; 6 ch ||
Навигация по главам: есть



General
Unique ID : 186475329107395881177684389936913381977 (0x8C49D78EBC9B28099123D4860956FA59)
Complete name : D:\Расширенная вселенная DC - DC Extended Universe (2013 - ....) BDRip - HEVC 1080p 10 bit 60 FPS\Чудо-женщина - Wonder Woman (2017) BDRip - HEVC 1080p 10Bit 60 FPS.mkv
Format : Matroska
Format version : Version 4
File size : 4.40 GiB
Duration : 2 h 21 min
Overall bit rate : 4 456 kb/s
Movie name : Rip by from DD2D3
Encoded date : UTC 2020-08-17 15:17:19
Writing application : mkvmerge v10.0.0 ('To Drown In You') 32bit
Writing library : libebml v1.3.4 + libmatroska v1.4.5
Attachments : poster

Video
ID : 1
Format : HEVC
Format/Info : High Efficiency Video Coding
Format profile : Main [email protected]@Main
Codec ID : V_MPEGH/ISO/HEVC
Duration : 2 h 21 min
Bit rate : 4 003 kb/s
Width : 1 920 pixels
Height : 800 pixels
Display aspect ratio : 2.40:1
Frame rate mode : Constant
Frame rate : 59.940 (60000/1001) FPS
Color space : YUV
Chroma subsampling : 4:2:0
Bit depth : 10 bits
Bits/(Pixel*Frame) : 0.043
Stream size : 3.95 GiB (90%)
Writing library : x265 2.3+33-0b7d54dbb71a87a0:[Windows][MSVC 1800][64 bit] 10bit: KG7x [x265.ru]
Encoding settings : cpuid=1173503 / frame-threads=2 / numa-pools=4 / wpp / no-pmode / no-pme / no-psnr / no-ssim / log-level=2 / input-csp=1 / input-res=1920x800 / interlace=0 / total-frames=508046 / level-idc=41 / high-tier=1 / uhd-bd=0 / ref=3 / no-allow-non-conformance / no-repeat-headers / annexb / no-aud / no-hrd / info / hash=0 / no-temporal-layers / open-gop / min-keyint=25 / keyint=250 / bframes=4 / b-adapt=2 / b-pyramid / bframe-bias=0 / rc-lookahead=20 / lookahead-slices=5 / scenecut=40 / no-intra-refresh / ctu=64 / min-cu-size=8 / no-rect / no-amp / max-tu-size=32 / tu-inter-depth=1 / tu-intra-depth=1 / limit-tu=0 / rdoq-level=0 / dynamic-rd=0.00 / no-ssim-rd / signhide / no-tskip / nr-intra=0 / nr-inter=0 / no-constrained-intra / strong-intra-smoothing / max-merge=2 / limit-refs=3 / no-limit-modes / me=1 / subme=2 / merange=57 / temporal-mvp / weightp / no-weightb / no-analyze-src-pics / deblock=0:0 / sao / no-sao-non-deblock / rd=3 / no-early-skip / rskip / no-fast-intra / no-tskip-fast / no-cu-lossless / no-b-intra / rdpenalty=0 / psy-rd=2.00 / psy-rdoq=0.00 / no-rd-refine / analysis-mode=0 / no-lossless / cbqpoffs=0 / crqpoffs=0 / rc=abr / bitrate=4000 / qcomp=0.60 / qpstep=4 / stats-write=0 / stats-read=2 / cplxblur=20.0 / qblur=0.5 / ipratio=1.40 / pbratio=1.30 / aq-mode=1 / aq-strength=1.00 / cutree / zone-count=0 / no-strict-cbr / qg-size=32 / no-rc-grain / qpmax=69 / qpmin=0 / sar=1 / overscan=0 / videoformat=5 / range=0 / colorprim=2 / transfer=2 / colormatrix=2 / chromaloc=0 / display-window=0 / max-cll=0,0 / min-luma=0 / max-luma=1023 / log2-max-poc-lsb=8 / vui-timing-info / vui-hrd-info / slices=1 / opt-qp-pps / opt-ref-list-length-pps / no-multi-pass-opt-rps / scenecut-bias=0.05 / no-opt-cu-delta-qp / no-aq-motion / no-hdr / no-hdr-opt / refine-level=5 / no-limit-sao
Default : Yes
Forced : No

Audio
ID : 2
Format : AC-3
Format/Info : Audio Coding 3
Commercial name : Dolby Digital
Codec ID : A_AC3
Duration : 2 h 21 min
Bit rate mode : Constant
Bit rate : 448 kb/s
Channel(s) : 6 channels
Channel layout : L R C LFE Ls Rs
Sampling rate : 48.0 kHz
Frame rate : 31.250 FPS (1536 SPF)
Compression mode : Lossy
Stream size : 453 MiB (10%)
Title : Дубляж [License]
Language : Russian
Service kind : Complete Main
Default : Yes
Forced : No

Text
ID : 3
Format : UTF-8
Codec ID : S_TEXT/UTF8
Codec ID/Info : UTF-8 Plain Text
Duration : 2 h 12 min
Bit rate : 80 b/s
Count of elements : 1300
Stream size : 78.2 KiB (0%)
Title : Full
Language : Russian
Default : No
Forced : No

Menu
00:00:00.000 : en:Chapter 1
00:10:26.917 : en:Chapter 2
00:23:12.557 : en:Chapter 3
00:33:10.738 : en:Chapter 4
00:43:55.132 : en:Chapter 5
00:54:25.553 : en:Chapter 6
01:07:38.262 : en:Chapter 7
01:22:30.195 : en:Chapter 8
01:34:02.845 : en:Chapter 9
01:45:37.998 : en:Chapter 10
01:57:43.765 : en:Chapter 11
02:10:41.416 : en:Chapter 12
скриншот   скриншот   скриншот  


© Оформление by DD2D3

Wonder Woman 1984
«A new era of wonder begins»


Год выпуска: 2020
Страна: США, Великобритания, Испания
Жанр: Фэнтези, боевик, приключения

Продолжительность: 02:31:07
Перевод: Дублированный | Мосфильм-Мастер
Субтитры: русские

Режиссер: Патти Дженкинс
В ролях: Галь Гадот, Крис Пайн, Кристен Уиг, Педро Паскаль, Робин Райт, Конни Нильсен, Лилли Аспелл, Амр Вакед, Кристоффер Полаха, Наташа Ротуэлл

Описание: Влиятельный и успешный бизнесмен Лорд мечтает стать богом среди смертных. Для этого он не жалеет средств и собирает со всех уголков света разнообразные магические артефакты, пытаясь найти тот, который сможет подарить ему безграничную силу и могущество. В поисках ему помогает специалист по древней истории доктор Барбара Энн Минерва. Так в руки Минервы попадает некий артефакт, который превращает её в дикую, кровожадную и неуправляемую женщину-кошку — Гепарду. Вне себя от ярости она начинает охоту за Лордом, по чьей вине и превратилась в монстра.

Мировая премьера: 16 декабря 2020


Качество: BDRip 1080p Rip by DD2D3
Формат: MKV
Видео: V_MPEGH/ISO/HEVC; 1920x1080 (16:9); 3999 Kbps; 59,940 fps; 0,032 bpp
Аудио: русский; AC3; 384 Kbps; CBR; 6 ch ||
Навигация по главам: есть



General
Unique ID : 251655058359093205450170966773358983038 (0xBD5300523FE6A52EA9BFC6B4BB5CF77E)
Complete name : D:\DC Extended Universe (2013 - ....) BDRip - HEVC 1080p 10 bit 60 FPS\Wonder Woman 1984 (2020) [IMAX Edition] BDRip - HEVC 1080p 10 bit 60 FPS.mkv
Format : Matroska
Format version : Version 4
File size : 4.63 GiB
Duration : 2 h 31 min
Overall bit rate : 4 390 kb/s
Movie name : Rip by from DD2D3
Encoded date : UTC 2021-03-15 17:35:36
Writing application : mkvmerge v10.0.0 ('To Drown In You') 32bit
Writing library : libebml v1.3.4 + libmatroska v1.4.5
Attachments : poster

Video
ID : 1
Format : HEVC
Format/Info : High Efficiency Video Coding
Format profile : Main [email protected]@Main
Codec ID : V_MPEGH/ISO/HEVC
Duration : 2 h 31 min
Bit rate : 3 999 kb/s
Width : 1 920 pixels
Height : 1 080 pixels
Display aspect ratio : 16:9
Frame rate mode : Constant
Frame rate : 59.940 (60000/1001) FPS
Color space : YUV
Chroma subsampling : 4:2:0
Bit depth : 10 bits
Bits/(Pixel*Frame) : 0.032
Stream size : 4.22 GiB (91%)
Writing library : x265 2.3+33-0b7d54dbb71a87a0:[Windows][MSVC 1800][64 bit] 10bit: KG7x [x265.ru]
Encoding settings : cpuid=1173503 / frame-threads=2 / numa-pools=4 / wpp / no-pmode / no-pme / no-psnr / no-ssim / log-level=2 / input-csp=1 / input-res=1920x1080 / interlace=0 / total-frames=543516 / level-idc=41 / high-tier=1 / uhd-bd=0 / ref=3 / no-allow-non-conformance / no-repeat-headers / annexb / no-aud / no-hrd / info / hash=0 / no-temporal-layers / open-gop / min-keyint=25 / keyint=250 / bframes=4 / b-adapt=2 / b-pyramid / bframe-bias=0 / rc-lookahead=20 / lookahead-slices=6 / scenecut=40 / no-intra-refresh / ctu=64 / min-cu-size=8 / no-rect / no-amp / max-tu-size=32 / tu-inter-depth=1 / tu-intra-depth=1 / limit-tu=0 / rdoq-level=0 / dynamic-rd=0.00 / no-ssim-rd / signhide / no-tskip / nr-intra=0 / nr-inter=0 / no-constrained-intra / strong-intra-smoothing / max-merge=2 / limit-refs=3 / no-limit-modes / me=1 / subme=2 / merange=57 / temporal-mvp / weightp / no-weightb / no-analyze-src-pics / deblock=0:0 / sao / no-sao-non-deblock / rd=3 / no-early-skip / rskip / no-fast-intra / no-tskip-fast / no-cu-lossless / no-b-intra / rdpenalty=0 / psy-rd=2.00 / psy-rdoq=0.00 / no-rd-refine / analysis-mode=0 / no-lossless / cbqpoffs=0 / crqpoffs=0 / rc=abr / bitrate=4000 / qcomp=0.60 / qpstep=4 / stats-write=0 / stats-read=2 / cplxblur=20.0 / qblur=0.5 / ipratio=1.40 / pbratio=1.30 / aq-mode=1 / aq-strength=1.00 / cutree / zone-count=0 / no-strict-cbr / qg-size=32 / no-rc-grain / qpmax=69 / qpmin=0 / sar=1 / overscan=0 / videoformat=5 / range=0 / colorprim=2 / transfer=2 / colormatrix=2 / chromaloc=0 / display-window=0 / max-cll=0,0 / min-luma=0 / max-luma=1023 / log2-max-poc-lsb=8 / vui-timing-info / vui-hrd-info / slices=1 / opt-qp-pps / opt-ref-list-length-pps / no-multi-pass-opt-rps / scenecut-bias=0.05 / no-opt-cu-delta-qp / no-aq-motion / no-hdr / no-hdr-opt / refine-level=5 / no-limit-sao
Default : Yes
Forced : No

Audio
ID : 2
Format : AC-3
Format/Info : Audio Coding 3
Commercial name : Dolby Digital
Codec ID : A_AC3
Duration : 2 h 31 min
Bit rate mode : Constant
Bit rate : 384 kb/s
Channel(s) : 6 channels
Channel layout : L R C LFE Ls Rs
Sampling rate : 48.0 kHz
Frame rate : 31.250 FPS (1536 SPF)
Compression mode : Lossy
Stream size : 415 MiB (9%)
Title : Дубляж [Мосфильм-Мастер]
Language : Russian
Service kind : Complete Main
Default : Yes
Forced : Yes

Text
ID : 3
Format : UTF-8
Codec ID : S_TEXT/UTF8
Codec ID/Info : UTF-8 Plain Text
Duration : 2 h 26 min
Bit rate : 79 b/s
Count of elements : 1841
Stream size : 85.5 KiB (0%)
Title : Full [FOCS]
Language : Russian
Default : No
Forced : No

Menu
00:00:00.000 : :Chapter 1
00:03:17.071 : :Chapter 2
00:11:18.386 : :Chapter 3
00:19:52.983 : :Chapter 4
00:29:11.124 : :Chapter 5
00:35:24.831 : :Chapter 6
00:41:06.881 : :Chapter 7
00:50:24.021 : :Chapter 8
00:57:08.550 : :Chapter 9
01:06:54.093 : :Chapter 10
01:16:48.896 : :Chapter 11
01:20:01.046 : :Chapter 12
01:28:58.291 : :Chapter 13
01:37:31.053 : :Chapter 14
01:47:00.038 : :Chapter 15
01:54:54.512 : :Chapter 16
02:00:31.015 : :Chapter 17
02:05:29.146 : :Chapter 18
02:11:21.748 : :Chapter 19
02:20:21.913 : :Chapter 20
02:25:35.518 : :Chapter 21
скриншот   скриншот   скриншот  


Man of Steel
«Accomplish Wonder»


Год выпуска: 2013
Страна: США, Канада, Великобритания
Жанр: фантастика, фэнтези, боевик, приключения

Продолжительность: 02:23:00
Перевод: Дублированный | iTunes
Субтитры: русские

Режиссер: Зак Снайдер
В ролях: Генри Кавилл, Эми Адамс, Майкл Шеннон, Кевин Костнер, Дайан Лэйн, Лоуренс Фишборн, Антье Трауэ, Айелет Зурер, Расселл Кроу, Гарри Дж. Ленникс, Ричард Шифф, Кристофер Мелони, Дилан Спрейберри, Купер Тимберлайн, Ричард Цетрон, МакКензи Грэй, Джулиан Ричингс, Мэри Блэк, Саманта Джоо

Описание: Кларк Кент/Кал-Эл — молодой человек, который чувствует себя чужаком из-за своей невероятной силы. Много лет назад он был отправлен на Землю с развитой планеты Криптон, и теперь задается вопросом: зачем? Воспитанный приемными родителями Мартой и Джонатаном Кентами, Кларк знает: обладать сверхспособностями — значит принимать сложные решения. Но когда человечество более всего нуждается в стабильности, оно подвергается нападению. Сможет ли герой восстановить мир, или воспользуется своей силой для того, чтобы окончательно его разрушить?

Мировая премьера: 10 июня 2013


Качество: BDRip 1080p Rip by DD2D3
Формат: MKV
Видео: V_MPEGH/ISO/HEVC;1920x800 (2.40:1);4500 Kbps;59,940 fps;0.049 bpp
Аудио: русский; AC3; 640 Kbps; CBR; 6 ch ||
Навигация по главам: есть



General
Unique ID : 176095152378624823348147478939003714318 (0x847AB154F789A138B5FE3A998B7AFB0E)
Complete name : D:\Расширенная вселенная DC - DC Extended Universe (2013 - ....) BDRip - HEVC 1080p 10 bit 60 FPS\Человек из стали - Man of Steel (2013) BDRip - HEVC 1080p 10 bit 60 FPS.mkv
Format : Matroska
Format version : Version 4
File size : 5.14 GiB
Duration : 2 h 23 min
Overall bit rate : 5 149 kb/s
Movie name : Rip by from DD2D3
Encoded date : UTC 2020-08-01 17:02:01
Writing application : mkvmerge v10.0.0 ('To Drown In You') 32bit
Writing library : libebml v1.3.4 + libmatroska v1.4.5
Attachments : poster

Video
ID : 1
Format : HEVC
Format/Info : High Efficiency Video Coding
Format profile : Main [email protected]@Main
Codec ID : V_MPEGH/ISO/HEVC
Duration : 2 h 23 min
Bit rate : 4 503 kb/s
Width : 1 920 pixels
Height : 800 pixels
Display aspect ratio : 2.40:1
Frame rate mode : Constant
Frame rate : 59.940 (60000/1001) FPS
Color space : YUV
Chroma subsampling : 4:2:0
Bit depth : 10 bits
Bits/(Pixel*Frame) : 0.049
Stream size : 4.50 GiB (87%)
Writing library : x265 2.3+33-0b7d54dbb71a87a0:[Windows][MSVC 1800][64 bit] 10bit: KG7x [x265.ru]
Encoding settings : cpuid=1173503 / frame-threads=2 / numa-pools=4 / wpp / no-pmode / no-pme / no-psnr / no-ssim / log-level=2 / input-csp=1 / input-res=1920x800 / interlace=0 / total-frames=514438 / level-idc=41 / high-tier=1 / uhd-bd=0 / ref=3 / no-allow-non-conformance / no-repeat-headers / annexb / no-aud / no-hrd / info / hash=0 / no-temporal-layers / open-gop / min-keyint=25 / keyint=250 / bframes=4 / b-adapt=2 / b-pyramid / bframe-bias=0 / rc-lookahead=20 / lookahead-slices=5 / scenecut=40 / no-intra-refresh / ctu=64 / min-cu-size=8 / no-rect / no-amp / max-tu-size=32 / tu-inter-depth=1 / tu-intra-depth=1 / limit-tu=0 / rdoq-level=0 / dynamic-rd=0.00 / no-ssim-rd / signhide / no-tskip / nr-intra=0 / nr-inter=0 / no-constrained-intra / strong-intra-smoothing / max-merge=2 / limit-refs=3 / no-limit-modes / me=1 / subme=2 / merange=57 / temporal-mvp / weightp / no-weightb / no-analyze-src-pics / deblock=0:0 / no-sao / no-sao-non-deblock / rd=3 / no-early-skip / no-rskip / no-fast-intra / no-tskip-fast / no-cu-lossless / no-b-intra / rdpenalty=0 / psy-rd=4.00 / psy-rdoq=0.00 / no-rd-refine / analysis-mode=0 / no-lossless / cbqpoffs=0 / crqpoffs=0 / rc=abr / bitrate=4500 / qcomp=0.60 / qpstep=1 / stats-write=0 / stats-read=2 / cplxblur=20.0 / qblur=0.5 / ipratio=1.10 / pbratio=1.00 / aq-mode=0 / aq-strength=0.00 / no-cutree / zone-count=0 / no-strict-cbr / qg-size=64 / rc-grain / qpmax=69 / qpmin=0 / sar=1 / overscan=0 / videoformat=5 / range=0 / colorprim=2 / transfer=2 / colormatrix=2 / chromaloc=0 / display-window=0 / max-cll=0,0 / min-luma=0 / max-luma=1023 / log2-max-poc-lsb=8 / vui-timing-info / vui-hrd-info / slices=1 / opt-qp-pps / opt-ref-list-length-pps / no-multi-pass-opt-rps / scenecut-bias=0.05 / no-opt-cu-delta-qp / no-aq-motion / no-hdr / no-hdr-opt / refine-level=5 / no-limit-sao
Default : Yes
Forced : No

Audio
ID : 2
Format : AC-3
Format/Info : Audio Coding 3
Commercial name : Dolby Digital
Codec ID : A_AC3
Duration : 2 h 23 min
Bit rate mode : Constant
Bit rate : 640 kb/s
Channel(s) : 6 channels
Channel layout : L R C LFE Ls Rs
Sampling rate : 48.0 kHz
Frame rate : 31.250 FPS (1536 SPF)
Compression mode : Lossy
Stream size : 655 MiB (12%)
Title : Дубляж
Language : Russian
Service kind : Complete Main
Default : Yes
Forced : No

Text
ID : 3
Format : UTF-8
Codec ID : S_TEXT/UTF8
Codec ID/Info : UTF-8 Plain Text
Duration : 2 h 22 min
Bit rate : 42 b/s
Count of elements : 1236
Stream size : 43.8 KiB (0%)
Title : Rus Full
Language : Russian
Default : No
Forced : No

Menu
00:00:00.000 : :Chapter 01
00:11:16.967 : :Chapter 02
00:20:01.450 : :Chapter 03
00:30:09.474 : :Chapter 04
00:39:21.609 : :Chapter 05
00:48:57.643 : :Chapter 06
00:59:03.414 : :Chapter 07
01:08:57.883 : :Chapter 08
01:17:35.108 : :Chapter 09
01:28:36.185 : :Chapter 10
01:40:47.791 : :Chapter 11
01:50:55.857 : :Chapter 12
02:00:53.579 : :Chapter 13
02:10:13.555 : :Chapter 14
02:12:49.920 : :Chapter 15
02:23:02.365 : :Chapter 16
скриншот   скриншот   скриншот  


Batman v Superman Dawn of Justice
«Who will win?»


Год выпуска: 2016
Страна: США
Жанр: фантастика, боевик, приключения

Продолжительность: 03:02:34
Перевод: Дублированный | Мосфильм & вставки на расширенные MVO FocusStudio
Перевод: Одноголосый | A.Matveev
Субтитры: русские | A.Matveev

Режиссер: Зак Снайдер
В ролях: Джереми Айронс, Бен Аффлек, Генри Кавилл, Галь Гадот, Эми Адамс, Джесси Айзенберг, Дайан Лэйн, Лоренс Фишбёрн, Холли Хантер, Скут МакНэйри, Каллэн Мулвей, Тао Окамото, Брэндон Спинк, Лорен Коэн, Алан Д. Первин, Марк Эдвард Тейлор, Хью Магвайр, Майкл Шеннон, Ханна Дворкин, Тиффани Л. Эддисон.

Описание: Опасаясь, что действия богоподобного супергероя так и останутся бесконтрольными, грозный и могущественный страж Готэм Сити бросает вызов самому почитаемому в наши дни спасителю Метрополиса, в то время как весь остальной мир решает, какой герой ему по-настоящему нужен. И пока Бэтмен и Супермен пребывают в состоянии войны друг с другом, возникает новая угроза, которая ставит человечество под самую большую опасность, с которой оно когда-либо сталкивалось.

Мировая премьера: 12 марта 2016


Качество: HyBriDRip 1080p Rip by DD2D3
Формат: MKV
Видео: V_MPEGH/ISO/HEVC; 1920x1080 (16:9); 3664 Kbps; 60 fps; 0,029 bpp
Аудио: русский; AC3; 448 Kbps; CBR; 6 ch ||
Аудио: русский; AC3; 640 Kbps; CBR; 6 ch ||
Навигация по главам: есть
Доп. информация: UlTimaTe EdiTioN
Доп. информация: IMAX Edition



Общее
Уникальный идентификатор : 210723200327035653111736024524749502817 (0x9E87CFE8FA13B6949C26A5AFA5277961)
Полное имя : E:\DC Extended Universe (2013 - ....) BDRip - HEVC 1080p 10 bit 60 FPS\Batman v Superman Dawn of Justice (2016) (UlTimaTe EdiTioN) [IMAX Edition] HyBriDRip - HEVC 1080p 10 bit 60 FPS.mkv
Формат : Matroska
Версия формата : Version 2
Размер файла : 6,18 Гбайт
Продолжительность : 3 ч. 2 м.
Общий поток : 4 849 Кбит/сек
Название фильма : Rip by from DD2D3
Дата кодирования : UTC 2022-06-02 11:40:11
Программа кодирования : mkvmerge v6.9.1 ('Blue Panther') 32bit built on Apr 18 2014 18:15:44
Библиотека кодирования : libebml v1.3.0 + libmatroska v1.4.1
Attachments : poster

Видео
Идентификатор : 1
Формат : HEVC
Формат/Информация : High Efficiency Video Coding
Профиль формата : Main [email protected]@Main
Идентификатор кодека : V_MPEGH/ISO/HEVC
Продолжительность : 3 ч. 2 м.
Битрейт : 3 665 Кбит/сек
Ширина : 1 920 пикселей
Высота : 1 080 пикселей
Соотношение сторон : 16:9
Режим частоты кадров : Постоянный
Частота кадров : 60,000 кадров/сек
Цветовое пространство : YUV
Субдискретизация насыщенности : 4:2:0
Битовая глубина : 10 бит
Бит/(Пиксели*Кадры) : 0.029
Размер потока : 4,67 Гбайт (76%)
Default : Да
Forced : Нет
Цветовой диапазон : Limited
Основные цвета : BT.709
Характеристики трансфера : BT.709
Коэффициенты матрицы : BT.709

Аудио #1
Идентификатор : 2
Формат : AC-3
Формат/Информация : Audio Coding 3
Коммерческое название : Dolby Digital
Идентификатор кодека : A_AC3
Продолжительность : 3 ч. 2 м.
Вид битрейта : Постоянный
Битрейт : 448 Кбит/сек
Каналы : 6 каналов
Channel layout : L R C LFE Ls Rs
Частота : 48,0 КГц
Частота кадров : 31,250 кадров/сек (1536 SPF)
Метод сжатия : С потерями
Размер потока : 585 Мбайт (9%)
Заголовок : Дубляж | DD 5.1 @ 640 kbps + Mvo [FocusStudio]
Язык : Russian
Service kind : Complete Main
Default : Да
Forced : Нет

Аудио #2
Идентификатор : 3
Формат : AC-3
Формат/Информация : Audio Coding 3
Коммерческое название : Dolby Digital
Идентификатор кодека : A_AC3
Продолжительность : 3 ч. 2 м.
Вид битрейта : Постоянный
Битрейт : 640 Кбит/сек
Каналы : 6 каналов
Channel layout : L R C LFE Ls Rs
Частота : 48,0 КГц
Частота кадров : 31,250 кадров/сек (1536 SPF)
Метод сжатия : С потерями
Размер потока : 836 Мбайт (13%)
Заголовок : AVO | DD 5.1 @ 640 kbps - A.Matveev [Censorship]
Язык : Russian
Service kind : Complete Main
Default : Нет
Forced : Нет

Текст
Идентификатор : 4
Формат : UTF-8
Идентификатор кодека : S_TEXT/UTF8
Идентификатор кодека/Информация : UTF-8 Plain Text
Заголовок : A.Matveev [censorship]
Язык : Russian
Default : Нет
Forced : Нет

Меню
00:00:00.000 : :00:00:00.000
00:10:10.652 : :00:10:10.652
00:27:00.661 : :00:27:00.661
00:37:49.225 : :00:37:49.225
00:46:54.520 : :00:46:54.520
01:02:04.971 : :01:02:04.971
01:14:10.613 : :01:14:10.613
01:28:07.115 : :01:28:07.115
01:41:46.642 : :01:41:46.642
01:53:52.617 : :01:53:52.617
02:02:58.079 : :02:02:58.079
02:15:04.054 : :02:15:04.054
02:27:55.075 : :02:27:55.075
02:36:51.444 : :02:36:51.444
02:48:27.514 : :02:48:27.514
02:54:43.765 : :02:54:43.765
скриншот   скриншот   скриншот  


Suicide Squad
«Justice has a bad side»


Год выпуска: 2016
Страна: США
Жанр: фантастика, боевик, приключения

Продолжительность: 02:14:32
Перевод: Дублированный | вставки на расширенные AVO А. Матвеев
Субтитры: русские

Режиссер: Дэвид Эйр
В ролях: Марго Робби, Уилл Смит, Джаред Лето, Джай Кортни, Кара Делевинь, Джей Эрнандес , Юэль Киннаман, Виола Дэвис, Адевале Акинойе-Агбаже, Скотт Иствуд, Дэвид Харбор, Коммон, Эзра Миллер

Описание: Правительство решает дать команде суперзлодеев шанс на искупление. Подвох в том, что их отправляют на миссию, где они, вероятнее всего, погибнут.

Мировая премьера: 12 марта 2016


Качество: BDRip 1080p Rip by DD2D3
Формат: MKV
Видео: V_MPEGH/ISO/HEVC;1920x800 (2.40:1);4009 Kbps;59,940 fps;0.044 bpp
Аудио: русский; AC3; 640 Kbps; CBR; 6 ch ||
Навигация по главам: есть
Доп. информация: Extended Cut



General
Unique ID : 245418435656709141247316425166394066843 (0xB8A1DF14F61279E88E1578356D85879B)
Complete name : D:\DC Extended Universe (2013 - ....) BDRip - HEVC 1080p 10 bit 60 FPS\Suicide Squad (2016) [Extended Cut] BDRip - HEVC 1080p 10 bit 60 FPS.mkv
Format : Matroska
Format version : Version 4
File size : 4.38 GiB
Duration : 2 h 14 min
Overall bit rate : 4 655 kb/s
Movie name : Rip by from DD2D3
Encoded date : UTC 2020-11-29 11:20:02
Writing application : mkvmerge v10.0.0 ('To Drown In You') 32bit
Writing library : libebml v1.3.4 + libmatroska v1.4.5
Attachments : poster / poster (2).jpg

Video
ID : 1
Format : HEVC
Format/Info : High Efficiency Video Coding
Format profile : Main [email protected]@Main
Codec ID : V_MPEGH/ISO/HEVC
Duration : 2 h 14 min
Bit rate : 4 009 kb/s
Width : 1 920 pixels
Height : 800 pixels
Display aspect ratio : 2.40:1
Frame rate mode : Constant
Frame rate : 59.940 (60000/1001) FPS
Color space : YUV
Chroma subsampling : 4:2:0
Bit depth : 10 bits
Bits/(Pixel*Frame) : 0.044
Stream size : 3.77 GiB (86%)
Writing library : x265 2.3+33-0b7d54dbb71a87a0:[Windows][MSVC 1800][64 bit] 10bit: KG7x [x265.ru]
Encoding settings : cpuid=1173503 / frame-threads=2 / numa-pools=4 / wpp / no-pmode / no-pme / no-psnr / no-ssim / log-level=2 / input-csp=1 / input-res=1920x800 / interlace=0 / total-frames=483886 / level-idc=41 / high-tier=1 / uhd-bd=0 / ref=3 / no-allow-non-conformance / no-repeat-headers / annexb / no-aud / no-hrd / info / hash=0 / no-temporal-layers / open-gop / min-keyint=25 / keyint=250 / bframes=4 / b-adapt=2 / b-pyramid / bframe-bias=0 / rc-lookahead=20 / lookahead-slices=5 / scenecut=40 / no-intra-refresh / ctu=64 / min-cu-size=8 / no-rect / no-amp / max-tu-size=32 / tu-inter-depth=1 / tu-intra-depth=1 / limit-tu=0 / rdoq-level=0 / dynamic-rd=0.00 / no-ssim-rd / signhide / no-tskip / nr-intra=0 / nr-inter=0 / no-constrained-intra / strong-intra-smoothing / max-merge=2 / limit-refs=3 / no-limit-modes / me=1 / subme=2 / merange=57 / temporal-mvp / weightp / no-weightb / no-analyze-src-pics / deblock=0:0 / no-sao / no-sao-non-deblock / rd=3 / no-early-skip / no-rskip / no-fast-intra / no-tskip-fast / no-cu-lossless / no-b-intra / rdpenalty=0 / psy-rd=4.00 / psy-rdoq=0.00 / no-rd-refine / analysis-mode=0 / no-lossless / cbqpoffs=0 / crqpoffs=0 / rc=abr / bitrate=4000 / qcomp=0.60 / qpstep=1 / stats-write=0 / stats-read=2 / cplxblur=20.0 / qblur=0.5 / ipratio=1.10 / pbratio=1.00 / aq-mode=0 / aq-strength=0.00 / no-cutree / zone-count=0 / no-strict-cbr / qg-size=64 / rc-grain / qpmax=69 / qpmin=0 / sar=1 / overscan=0 / videoformat=5 / range=0 / colorprim=2 / transfer=2 / colormatrix=2 / chromaloc=0 / display-window=0 / max-cll=0,0 / min-luma=0 / max-luma=1023 / log2-max-poc-lsb=8 / vui-timing-info / vui-hrd-info / slices=1 / opt-qp-pps / opt-ref-list-length-pps / no-multi-pass-opt-rps / scenecut-bias=0.05 / no-opt-cu-delta-qp / no-aq-motion / no-hdr / no-hdr-opt / refine-level=5 / no-limit-sao
Default : Yes
Forced : No

Audio
ID : 2
Format : AC-3
Format/Info : Audio Coding 3
Commercial name : Dolby Digital
Codec ID : A_AC3
Duration : 2 h 14 min
Bit rate mode : Constant
Bit rate : 640 kb/s
Channel(s) : 6 channels
Channel layout : L R C LFE Ls Rs
Sampling rate : 48.0 kHz
Frame rate : 31.250 FPS (1536 SPF)
Compression mode : Lossy
Stream size : 616 MiB (14%)
Title : Дубляж+AVO А.Матвеев | DD5.1 @ 640 kbps
Language : Russian
Service kind : Complete Main
Default : Yes
Forced : Yes

Text
ID : 3
Format : UTF-8
Codec ID : S_TEXT/UTF8
Codec ID/Info : UTF-8 Plain Text
Duration : 2 h 13 min
Bit rate : 72 b/s
Count of elements : 1570
Stream size : 71.4 KiB (0%)
Title : Full
Language : Russian
Default : No
Forced : No

Menu
00:00:00.000 : en:00:00:00.000
00:09:08.506 : en:00:09:08.506
00:20:22.972 : en:00:20:22.972
00:31:14.706 : en:00:31:14.706
00:41:04.879 : en:00:41:04.879
00:52:21.805 : en:00:52:21.805
01:04:48.843 : en:01:04:48.843
01:21:12.743 : en:01:21:12.743
01:32:11.943 : en:01:32:11.943
01:42:57.671 : en:01:42:57.671
01:50:58.652 : en:01:50:58.652
02:04:04.812 : en:02:04:04.812
 скриншот   скриншот   скриншот  


Justice League
«Нельзя спасти мир в одиночку»


Год выпуска: 2017
Страна: США, Великобритания, Канада
Жанр: фантастика, боевик, приключения

Продолжительность: 02:00:02
Перевод: Дублированный | iTunes
Субтитры: русские

Режиссер: Зак Снайдер
В ролях: Бен Аффлек, Генри Кавилл, Эми Адамс, Галь Гадот, Эзра Миллер, Джейсон Момоа, Рэй Фишер, Джереми Айронс, Дайан Лэйн, Конни Нильсен

Описание: Брюс Уэйн, вдохновленный самопожертвованием Супермена, вновь обретает веру в человечество. Он заручается поддержкой новой союзницы, Дианы Принс, чтобы сразиться с еще более могущественным противником. Бэтмен и Чудо-Женщина быстро набирают команду сверхлюдей для борьбы с пробудившейся угрозой. Но несмотря на уникальный состав отряда супергероев — Бэтмен, Чудо-Женщина, Аквамэн, Киборг и Флэш, — быть может, спасать планету от вторжения катастрофических масштабов уже слишком поздно.

Мировая премьера: 26 октября 2017


Качество: BDRip 1080p Rip by DD2D3
Формат: MKV
Видео: V_MPEGH/ISO/HEVC;1920x1080 (16:9);4502 Kbps;59,940 fps;0.036 bpp
Аудио: русский; AC3; 384 Kbps; CBR; 6 ch ||
Навигация по главам: есть




General
Unique ID : 188858098183341983201106896580893849419 (0x8E14BF24A8E0AA2F952F22B9CEC5B74B)
Complete name : D:\Расширенная вселенная DC - DC Extended Universe (2013 - ....) BDRip - HEVC 1080p 10 bit 60 FPS\Лига справедливости - Justice League (2017) BDRip - HEVC 1080p 10 bit 60 FPS.mkv
Format : Matroska
Format version : Version 4
File size : 4.10 GiB
Duration : 2 h 0 min
Overall bit rate : 4 893 kb/s
Movie name : Rip by from DD2D3
Encoded date : UTC 2020-08-09 07:57:31
Writing application : mkvmerge v10.0.0 ('To Drown In You') 32bit
Writing library : libebml v1.3.4 + libmatroska v1.4.5
Attachments : poster

Video
ID : 1
Format : HEVC
Format/Info : High Efficiency Video Coding
Format profile : Main [email protected]@Main
Codec ID : V_MPEGH/ISO/HEVC
Duration : 2 h 0 min
Bit rate : 4 502 kb/s
Width : 1 920 pixels
Height : 1 080 pixels
Display aspect ratio : 16:9
Frame rate mode : Constant
Frame rate : 59.940 (60000/1001) FPS
Color space : YUV
Chroma subsampling : 4:2:0
Bit depth : 10 bits
Bits/(Pixel*Frame) : 0.036
Stream size : 3.77 GiB (92%)
Writing library : x265 2.3+33-0b7d54dbb71a87a0:[Windows][MSVC 1800][64 bit] 10bit: KG7x [x265.ru]
Encoding settings : cpuid=1173503 / frame-threads=2 / numa-pools=4 / wpp / no-pmode / no-pme / no-psnr / no-ssim / log-level=2 / input-csp=1 / input-res=1920x1080 / interlace=0 / total-frames=431721 / level-idc=41 / high-tier=1 / uhd-bd=0 / ref=3 / no-allow-non-conformance / no-repeat-headers / annexb / no-aud / no-hrd / info / hash=0 / no-temporal-layers / open-gop / min-keyint=25 / keyint=250 / bframes=4 / b-adapt=2 / b-pyramid / bframe-bias=0 / rc-lookahead=20 / lookahead-slices=6 / scenecut=40 / no-intra-refresh / ctu=64 / min-cu-size=8 / no-rect / no-amp / max-tu-size=32 / tu-inter-depth=1 / tu-intra-depth=1 / limit-tu=0 / rdoq-level=0 / dynamic-rd=0.00 / no-ssim-rd / signhide / no-tskip / nr-intra=0 / nr-inter=0 / no-constrained-intra / strong-intra-smoothing / max-merge=2 / limit-refs=3 / no-limit-modes / me=1 / subme=2 / merange=57 / temporal-mvp / weightp / no-weightb / no-analyze-src-pics / deblock=0:0 / no-sao / no-sao-non-deblock / rd=3 / no-early-skip / no-rskip / no-fast-intra / no-tskip-fast / no-cu-lossless / no-b-intra / rdpenalty=0 / psy-rd=4.00 / psy-rdoq=0.00 / no-rd-refine / analysis-mode=0 / no-lossless / cbqpoffs=0 / crqpoffs=0 / rc=abr / bitrate=4500 / qcomp=0.60 / qpstep=1 / stats-write=0 / stats-read=2 / cplxblur=20.0 / qblur=0.5 / ipratio=1.10 / pbratio=1.00 / aq-mode=0 / aq-strength=0.00 / no-cutree / zone-count=0 / no-strict-cbr / qg-size=64 / rc-grain / qpmax=69 / qpmin=0 / sar=1 / overscan=0 / videoformat=5 / range=0 / colorprim=2 / transfer=2 / colormatrix=2 / chromaloc=0 / display-window=0 / max-cll=0,0 / min-luma=0 / max-luma=1023 / log2-max-poc-lsb=8 / vui-timing-info / vui-hrd-info / slices=1 / opt-qp-pps / opt-ref-list-length-pps / no-multi-pass-opt-rps / scenecut-bias=0.05 / no-opt-cu-delta-qp / no-aq-motion / no-hdr / no-hdr-opt / refine-level=5 / no-limit-sao
Default : Yes
Forced : No

Audio
ID : 2
Format : AC-3
Format/Info : Audio Coding 3
Commercial name : Dolby Digital
Codec ID : A_AC3
Duration : 2 h 0 min
Bit rate mode : Constant
Bit rate : 384 kb/s
Channel(s) : 6 channels
Channel layout : L R C LFE Ls Rs
Sampling rate : 48.0 kHz
Frame rate : 31.250 FPS (1536 SPF)
Compression mode : Lossy
Stream size : 330 MiB (8%)
Title : iTunes
Language : Russian
Service kind : Complete Main
Default : Yes
Forced : No

Text
ID : 3
Format : UTF-8
Codec ID : S_TEXT/UTF8
Codec ID/Info : UTF-8 Plain Text
Duration : 1 h 58 min
Bit rate : 69 b/s
Count of elements : 1024
Stream size : 60.3 KiB (0%)
Title : full
Language : Russian
Default : No
Forced : No

Menu
00:00:00.000 : en:Chapter 1
00:10:56.155 : en:Chapter 2
00:19:16.488 : en:Chapter 3
00:30:41.673 : en:Chapter 4
00:40:19.667 : en:Chapter 5
00:49:56.535 : en:Chapter 6
01:01:26.891 : en:Chapter 7
01:09:41.552 : en:Chapter 8
01:19:18.587 : en:Chapter 9
01:30:34.512 : en:Chapter 10
01:40:33.569 : en:Chapter 11
01:48:43.058 : en:Chapter 12


скриншот   скриншот   скриншот  


Zack Snyder's Justice League
«Нельзя спасти мир в одиночку»


Год выпуска: 2021
Страна: США, Канада, Великобритания
Жанр: фантастика, боевик, приключения

Продолжительность: 04:01:59
Перевод: Дублированный | Мосфильм-Мастер
Субтитры: русские

Режиссер: Зак Снайдер
В ролях: Бен Аффлек, Генри Кавилл, Эми Адамс, Галь Гадот, Эзра Миллер, Джейсон Момоа, Рэй Фишер, Джереми Айронс, Джаред Лето, Кирси Клемонс

Описание: Окончательная режиссерская версия Зака ​​Снайдера «Лиги справедливости» (2017). Вдохновившись самопожертвованием Супермена, Брюс Уэйн вновь обретает веру в человечество. Он заручается поддержкой новой союзницы Дианы Принс, чтобы сразиться с ещё более могущественным противником. Бэтмен и Чудо-женщина набирают команду сверхлюдей для борьбы с пробудившейся угрозой.

Мировая премьера: 18 марта 2021


Качество: BDRip 1080p Rip by DD2D3
Формат: MKV
Видео: V_MPEGH/ISO/HEVC; 1440x1080 (4:3); 3563 Kbps; 59,940 fps; 0,038 bpp
Аудио: русский; AC3; 384 Kbps; CBR; 6 ch ||
Навигация по главам: нет



General
Unique ID : 183484296417674987661731992569971372382 (0x8A09CA42A779B29EB8DB9E278972715E)
Complete name : D:\DC Extended Universe (2013 - ....) BDRip - HEVC 1080p 10 bit 60 FPS\Zack Snyder's Justice League (2021) WeBRip - HEVC 1080p 10 bit 60 FPS.mkv
Format : Matroska
Format version : Version 4
File size : 6.50 GiB
Duration : 4 h 1 min
Overall bit rate : 3 848 kb/s
Movie name : Rip by from DD2D3
Encoded date : UTC 2021-03-23 15:44:08
Writing application : mkvmerge v10.0.0 ('To Drown In You') 32bit
Writing library : libebml v1.3.4 + libmatroska v1.4.5
Attachments : poster

Video
ID : 1
Format : HEVC
Format/Info : High Efficiency Video Coding
Format profile : Main [email protected]@Main
Codec ID : V_MPEGH/ISO/HEVC
Duration : 3 h 54 min
Bit rate : 3 564 kb/s
Width : 1 440 pixels
Height : 1 080 pixels
Display aspect ratio : 4:3
Frame rate mode : Constant
Frame rate : 59.940 (60000/1001) FPS
Color space : YUV
Chroma subsampling : 4:2:0
Bit depth : 10 bits
Bits/(Pixel*Frame) : 0.038
Stream size : 5.85 GiB (90%)
Writing library : x265 2.3+33-0b7d54dbb71a87a0:[Windows][MSVC 1800][64 bit] 10bit: KG7x [x265.ru]
Encoding settings : cpuid=1173503 / frame-threads=2 / numa-pools=4 / wpp / no-pmode / no-pme / no-psnr / no-ssim / log-level=2 / input-csp=1 / input-res=1440x1080 / interlace=0 / total-frames=870273 / level-idc=41 / high-tier=1 / uhd-bd=0 / ref=3 / no-allow-non-conformance / no-repeat-headers / annexb / no-aud / no-hrd / info / hash=0 / no-temporal-layers / open-gop / min-keyint=25 / keyint=250 / bframes=4 / b-adapt=2 / b-pyramid / bframe-bias=0 / rc-lookahead=20 / lookahead-slices=6 / scenecut=40 / no-intra-refresh / ctu=64 / min-cu-size=8 / no-rect / no-amp / max-tu-size=32 / tu-inter-depth=1 / tu-intra-depth=1 / limit-tu=0 / rdoq-level=0 / dynamic-rd=0.00 / no-ssim-rd / signhide / no-tskip / nr-intra=0 / nr-inter=0 / no-constrained-intra / strong-intra-smoothing / max-merge=2 / limit-refs=3 / no-limit-modes / me=1 / subme=2 / merange=57 / temporal-mvp / weightp / no-weightb / no-analyze-src-pics / deblock=0:0 / sao / no-sao-non-deblock / rd=3 / no-early-skip / rskip / no-fast-intra / no-tskip-fast / no-cu-lossless / no-b-intra / rdpenalty=0 / psy-rd=2.00 / psy-rdoq=0.00 / no-rd-refine / analysis-mode=0 / no-lossless / cbqpoffs=0 / crqpoffs=0 / rc=abr / bitrate=3700 / qcomp=0.60 / qpstep=4 / stats-write=0 / stats-read=2 / cplxblur=20.0 / qblur=0.5 / ipratio=1.40 / pbratio=1.30 / aq-mode=1 / aq-strength=1.00 / cutree / zone-count=0 / no-strict-cbr / qg-size=32 / no-rc-grain / qpmax=69 / qpmin=0 / sar=1 / overscan=0 / videoformat=5 / range=0 / colorprim=2 / transfer=2 / colormatrix=2 / chromaloc=0 / display-window=0 / max-cll=0,0 / min-luma=0 / max-luma=1023 / log2-max-poc-lsb=8 / vui-timing-info / vui-hrd-info / slices=1 / opt-qp-pps / opt-ref-list-length-pps / no-multi-pass-opt-rps / scenecut-bias=0.05 / no-opt-cu-delta-qp / no-aq-motion / no-hdr / no-hdr-opt / refine-level=5 / no-limit-sao
Default : Yes
Forced : No

Audio
ID : 2
Format : AC-3
Format/Info : Audio Coding 3
Commercial name : Dolby Digital
Codec ID : A_AC3
Duration : 4 h 1 min
Bit rate mode : Constant
Bit rate : 384 kb/s
Channel(s) : 6 channels
Channel layout : L R C LFE Ls Rs
Sampling rate : 48.0 kHz
Frame rate : 31.250 FPS (1536 SPF)
Compression mode : Lossy
Delay relative to video : 28 ms
Stream size : 665 MiB (10%)
Title : Дубляж [Mosfilm-Master]
Language : Russian
Service kind : Complete Main
Default : Yes
Forced : Yes

Text
ID : 3
Format : UTF-8
Codec ID : S_TEXT/UTF8
Codec ID/Info : UTF-8 Plain Text
Duration : 3 h 50 min
Bit rate : 55 b/s
Count of elements : 1767
Stream size : 93.6 KiB (0%)
Title : Full
Language : Russian
Default : No
Forced : No


скриншот   скриншот   скриншот  


Aquaman
«Океан зовёт»


Год выпуска: 2018
Страна: Австралия, США
Жанр: фантастика, боевик, приключения

Продолжительность: 02:31:21
Перевод: Дублированный | iTunes
Субтитры: русские

Режиссер: Джеймс Ван
В ролях: Джейсон Момоа, Эмбер Хёрд, Дольф Лундгрен, Николь Кидман, Джули Эндрюс, Патрик Уилсон, Уиллем Дефо, Грэм МакТавиш, Талия Джейд, Джимон Хонсу, Темуэра Моррисон, Майкл Бич.

Описание: Действие фильма разворачивается в необъятном и захватывающем подводном мире семи морей, а сюжет знакомит зрителей с историей происхождения получеловека-полуатланта Артура Карри и ключевыми событиями его жизни — теми, что заставят его не только столкнуться с самим собой, но и выяснить, достоин ли он быть тем, кем ему суждено… царем!

Мировая премьера: 26 ноября 2018


Качество: WEB-DLRip 1080p Rip by DD2D3
Формат: MKV
Видео: V_MPEGH/ISO/HEVC; 1920x1080 (16:9); 3680 Kbps; 60 fps; 0,030 bpp
Аудио: русский; AC3; 448 Kbps; CBR; 6 ch ||
Навигация по главам: нет
Доп. информация: Open Matte




Общее
Уникальный идентификатор : 183597218285499646777798767630536562566 (0x8A1F89BD010F880289CFA6BFFD7A5786)
Полное имя : E:\DC Extended Universe (2013 - ....) BDRip - HEVC 1080p 10 bit 60 FPS\Aquaman (2018) [Open Matte] WEB-DLRip - HEVC 1080p 10 bit 60 FPS.mkv
Формат : Matroska
Версия формата : Version 2
Размер файла : 4,22 Гбайт
Продолжительность : 2 ч. 23 м.
Общий поток : 4 212 Кбит/сек
Название фильма : Rip by from DD2D3
Дата кодирования : UTC 2022-06-01 10:21:20
Программа кодирования : mkvmerge v6.9.1 ('Blue Panther') 32bit built on Apr 18 2014 18:15:44
Библиотека кодирования : libebml v1.3.0 + libmatroska v1.4.1
Attachments : poster

Видео
Идентификатор : 1
Формат : HEVC
Формат/Информация : High Efficiency Video Coding
Профиль формата : Main [email protected]@Main
Идентификатор кодека : V_MPEGH/ISO/HEVC
Продолжительность : 2 ч. 23 м.
Битрейт : 3 680 Кбит/сек
Ширина : 1 920 пикселей
Высота : 1 080 пикселей
Соотношение сторон : 16:9
Режим частоты кадров : Постоянный
Частота кадров : 60,000 кадров/сек
Цветовое пространство : YUV
Субдискретизация насыщенности : 4:2:0
Битовая глубина : 10 бит
Бит/(Пиксели*Кадры) : 0.030
Размер потока : 3,68 Гбайт (87%)
Default : Да
Forced : Нет
Цветовой диапазон : Limited
Основные цвета : BT.709
Характеристики трансфера : BT.709
Коэффициенты матрицы : BT.709

Аудио
Идентификатор : 2
Формат : AC-3
Формат/Информация : Audio Coding 3
Коммерческое название : Dolby Digital
Идентификатор кодека : A_AC3
Продолжительность : 2 ч. 23 м.
Вид битрейта : Постоянный
Битрейт : 448 Кбит/сек
Каналы : 6 каналов
Channel layout : L R C LFE Ls Rs
Частота : 48,0 КГц
Частота кадров : 31,250 кадров/сек (1536 SPF)
Метод сжатия : С потерями
Задержка видео : 20 мс.
Размер потока : 459 Мбайт (11%)
Язык : Russian
Service kind : Complete Main
Default : Да
Forced : Нет
Statistics Tags Issue : mkvmerge v8.3.0 ('Over the Horizon') 32bit 2019-05-21 17:47:03 / mkvmerge v6.9.1 ('Blue Panther') 32bit built on Apr 18 2014 18:15:44 2022-06-01 10:21:20
FromStats_BitRate : 448000
FromStats_Duration : 02:23:18.464000000
FromStats_FrameCount : 268702
FromStats_StreamSize : 481513984

Текст
Идентификатор : 3
Формат : UTF-8
Идентификатор кодека : S_TEXT/UTF8
Идентификатор кодека/Информация : UTF-8 Plain Text
Язык : Russian
Default : Нет
Forced : Нет
Statistics Tags Issue : mkvmerge v8.3.0 ('Over the Horizon') 32bit 2019-05-21 17:47:03 / mkvmerge v6.9.1 ('Blue Panther') 32bit built on Apr 18 2014 18:15:44 2022-06-01 10:21:20
FromStats_BitRate : 54
FromStats_Duration : 02:22:16.703000000
FromStats_FrameCount : 1119
FromStats_StreamSize : 58616


скриншот   скриншот   скриншот  


Shazam!
«Хочешь спасти мир? Скажи...»


Год выпуска: 2019
Страна: США
Жанр: фантастика, боевик, приключения

Продолжительность: 02:11:43
Перевод: Дублированный | iTunes
Субтитры: русские

Режиссер: Дэвид Ф. Сандберг
В ролях: Закари Ливай, Эшер Энджел, Джек Дилан Грейзер, Марк Стронг, Грэйс Фултон, Адам Броди, Джимон Хонсу, Фэйти Херман, Миган Гуд, Мишель Борт.

Описание: В каждом из нас живет супергерой, нужна лишь толика магии, чтобы он проявил себя. Билли Бэтсон должен прокричать всего лишь одно слово - ШАЗАМ! - чтобы из сообразительного четырнадцатилетнего мальчишки превратиться во вполне себе взрослого супергероя Шазама, а все благодаря древнему волшебнику. В душе он остается ребенком, пусть и во взрослом могучем теле, поэтому поступает так, как поступил бы любой подросток, получивший сверхспособности, - оттягивается на полную катушку в этой подросшей версии себя самого! А умеет ли он летать? А есть ли у него рентгеновское зрение? Может ли он стрелять молниями из рук? А может ли пропустить контрольную по обществознанию? Шазам проверяет границы своих возможностей с бесшабашностью расшалившегося ребенка. Но ему придется быстро обрести контроль над своими способностями, чтобы сразиться со смертоносными силами зла доктора Таддеуса Сиваны.

Мировая премьера: 25 марта 2019


Качество: BDRip 1080p Rip by DD2D3
Формат: MKV
Видео: V_MPEGH/ISO/HEVC;1920x804 (2.40:1);4002 Kbps;59,940 fps;0.043 bpp
Аудио: русский; AC3; 448 Kbps; CBR; 6 ch ||
Навигация по главам: есть




General
Unique ID : 253424042365786197834919904421869899211 (0xBEA7B1F7727376C1A56C22FBE3C5CDCB)
Complete name : D:\Расширенная вселенная DC - DC Extended Universe (2013 - ....) BDRip - HEVC 1080p 10 bit 60 FPS\Шазам! - Shazam! (2019) BDRip - HEVC 1080p 10 bit 60 FPS.mkv
Format : Matroska
Format version : Version 4
File size : 4.10 GiB
Duration : 2 h 11 min
Overall bit rate : 4 456 kb/s
Movie name : Rip by from DD2D3
Encoded date : UTC 2020-08-15 08:35:50
Writing application : mkvmerge v10.0.0 ('To Drown In You') 32bit
Writing library : libebml v1.3.4 + libmatroska v1.4.5
Attachments : poster

Video
ID : 1
Format : HEVC
Format/Info : High Efficiency Video Coding
Format profile : Main [email protected]@Main
Codec ID : V_MPEGH/ISO/HEVC
Duration : 2 h 11 min
Bit rate : 4 002 kb/s
Width : 1 920 pixels
Height : 804 pixels
Display aspect ratio : 2.40:1
Frame rate mode : Constant
Frame rate : 59.940 (60000/1001) FPS
Color space : YUV
Chroma subsampling : 4:2:0
Bit depth : 10 bits
Bits/(Pixel*Frame) : 0.043
Stream size : 3.68 GiB (90%)
Writing library : x265 2.3+33-0b7d54dbb71a87a0:[Windows][MSVC 1800][64 bit] 10bit: KG7x [x265.ru]
Encoding settings : cpuid=1173503 / frame-threads=2 / numa-pools=4 / wpp / no-pmode / no-pme / no-psnr / no-ssim / log-level=2 / input-csp=1 / input-res=1920x804 / interlace=0 / total-frames=473708 / level-idc=41 / high-tier=1 / uhd-bd=0 / ref=3 / no-allow-non-conformance / no-repeat-headers / annexb / no-aud / no-hrd / info / hash=0 / no-temporal-layers / open-gop / min-keyint=25 / keyint=250 / bframes=4 / b-adapt=2 / b-pyramid / bframe-bias=0 / rc-lookahead=20 / lookahead-slices=5 / scenecut=40 / no-intra-refresh / ctu=64 / min-cu-size=8 / no-rect / no-amp / max-tu-size=32 / tu-inter-depth=1 / tu-intra-depth=1 / limit-tu=0 / rdoq-level=0 / dynamic-rd=0.00 / no-ssim-rd / signhide / no-tskip / nr-intra=0 / nr-inter=0 / no-constrained-intra / strong-intra-smoothing / max-merge=2 / limit-refs=3 / no-limit-modes / me=1 / subme=2 / merange=57 / temporal-mvp / weightp / no-weightb / no-analyze-src-pics / deblock=0:0 / sao / no-sao-non-deblock / rd=3 / no-early-skip / rskip / no-fast-intra / no-tskip-fast / no-cu-lossless / no-b-intra / rdpenalty=0 / psy-rd=2.00 / psy-rdoq=0.00 / no-rd-refine / analysis-mode=0 / no-lossless / cbqpoffs=0 / crqpoffs=0 / rc=abr / bitrate=4000 / qcomp=0.60 / qpstep=4 / stats-write=0 / stats-read=2 / cplxblur=20.0 / qblur=0.5 / ipratio=1.40 / pbratio=1.30 / aq-mode=1 / aq-strength=1.00 / cutree / zone-count=0 / no-strict-cbr / qg-size=32 / no-rc-grain / qpmax=69 / qpmin=0 / sar=1 / overscan=0 / videoformat=5 / range=0 / colorprim=2 / transfer=2 / colormatrix=2 / chromaloc=0 / display-window=0 / max-cll=0,0 / min-luma=0 / max-luma=1023 / log2-max-poc-lsb=8 / vui-timing-info / vui-hrd-info / slices=1 / opt-qp-pps / opt-ref-list-length-pps / no-multi-pass-opt-rps / scenecut-bias=0.05 / no-opt-cu-delta-qp / no-aq-motion / no-hdr / no-hdr-opt / refine-level=5 / no-limit-sao
Default : Yes
Forced : No

Audio
ID : 2
Format : AC-3
Format/Info : Audio Coding 3
Commercial name : Dolby Digital
Codec ID : A_AC3
Duration : 2 h 11 min
Bit rate mode : Constant
Bit rate : 448 kb/s
Channel(s) : 6 channels
Channel layout : L R C LFE Ls Rs
Sampling rate : 48.0 kHz
Frame rate : 31.250 FPS (1536 SPF)
Compression mode : Lossy
Stream size : 422 MiB (10%)
Title : Дубляж [License]
Language : Russian
Service kind : Complete Main
Default : Yes
Forced : Yes

Text
ID : 3
Format : UTF-8
Codec ID : S_TEXT/UTF8
Codec ID/Info : UTF-8 Plain Text
Duration : 2 h 10 min
Bit rate : 65 b/s
Count of elements : 1756
Stream size : 62.9 KiB (0%)
Title : Full
Language : Russian
Default : No
Forced : No

Menu
00:00:00.000 : en:Chapter 01
00:08:18.790 : en:Chapter 02
00:15:11.285 : en:Chapter 03
00:25:22.396 : en:Chapter 04
00:31:57.624 : en:Chapter 05
00:39:00.255 : en:Chapter 06
00:50:07.713 : en:Chapter 07
01:01:28.810 : en:Chapter 08
01:08:51.502 : en:Chapter 09
01:16:40.471 : en:Chapter 10
01:24:29.356 : en:Chapter 11
01:34:00.677 : en:Chapter 12
01:43:01.175 : en:Chapter 13
01:52:53.850 : en:Chapter 14
02:00:44.446 : en:Chapter 15


скриншот   скриншот   скриншот  


Birds of Prey: And the Fantabulous Emancipation of One Harley Quinn
«Mind Over Mayhem»


Год выпуска: 2020
Страна: США
Жанр: боевик, криминал, комедия

Продолжительность: 1:48:54
Перевод: Дублированный | iTunes
Субтитры: русские

Режиссер: Кэти Янь
В ролях: Марго Робби, Джерни Смоллетт, Мэри Элизабет Уинстэд, Рози Перес, Элла Джей Баско, Юэн Макгрегор, Крис Мессина, Бояна Новакович, Али Вонг, Дэвид Ури

Описание: Харли Квинн рассталась с Джокером и через некоторое время сообщила об этом всему Готэму, взорвав тот самый химзавод. Девушка больше не тоскует по несостоявшимся отношениям — ей некогда, так как она также потеряла неприкосновенность, и теперь за ней охотятся разной степени криминализованности граждане, желающие отомстить. А в это время ставший крёстным отцом Готема Роман Сайонис очень жаждет вернуть пропавший бриллиант, который стащила у его подручного малолетняя карманница.

Мировая премьера: 25 января 2020


Качество: BDRip 1080p Rip by DD2D3
Формат: MKV
Видео: V_MPEGH/ISO/HEVC;1920x804 (2.40:1);4002 Kbps;59,940 fps;0.043 bpp
Аудио: русский; AC3; 384 Kbps; CBR; 6 ch ||
Навигация по главам: есть



General
Unique ID : 227389543235843293646709100276626711143 (0xAB11A20EA31A06BF90FCB76BE8EF6267)
Complete name : D:\DC Extended Universe (2013 - ....) BDRip - HEVC 1080p 10 bit 60 FPS\Birds of Prey And the Fantabulous Emancipation of One Harley Quinn (2020) BDRip - HEVC 1080p 10 bit 60 FPS.mkv
Format : Matroska
Format version : Version 4
File size : 3.34 GiB
Duration : 1 h 48 min
Overall bit rate : 4 394 kb/s
Movie name : Rip by from DD2D3
Encoded date : UTC 2020-06-28 11:01:40
Writing application : mkvmerge v10.0.0 ('To Drown In You') 32bit
Writing library : libebml v1.3.4 + libmatroska v1.4.5
Attachments : poster

Video
ID : 1
Format : HEVC
Format/Info : High Efficiency Video Coding
Format profile : [email protected]@Main
Codec ID : V_MPEGH/ISO/HEVC
Duration : 1 h 48 min
Bit rate : 4 002 kb/s
Width : 1 920 pixels
Height : 804 pixels
Display aspect ratio : 2.40:1
Frame rate mode : Constant
Frame rate : 59.940 (60000/1001) FPS
Color space : YUV
Chroma subsampling : 4:2:0
Bit depth : 8 bits
Bits/(Pixel*Frame) : 0.043
Stream size : 3.04 GiB (91%)
Writing library : x265 2.3+33-0b7d54dbb71a87a0:[Windows][MSVC 1800][64 bit] 8bit: KG7x [x265.ru]
Encoding settings : cpuid=1173503 / frame-threads=2 / numa-pools=4 / wpp / no-pmode / no-pme / no-psnr / no-ssim / log-level=2 / input-csp=1 / input-res=1920x804 / interlace=0 / total-frames=391658 / level-idc=41 / high-tier=1 / uhd-bd=0 / ref=3 / no-allow-non-conformance / no-repeat-headers / annexb / no-aud / no-hrd / info / hash=0 / no-temporal-layers / open-gop / min-keyint=25 / keyint=250 / bframes=4 / b-adapt=2 / b-pyramid / bframe-bias=0 / rc-lookahead=20 / lookahead-slices=5 / scenecut=40 / no-intra-refresh / ctu=64 / min-cu-size=8 / no-rect / no-amp / max-tu-size=32 / tu-inter-depth=1 / tu-intra-depth=1 / limit-tu=0 / rdoq-level=0 / dynamic-rd=0.00 / no-ssim-rd / signhide / no-tskip / nr-intra=0 / nr-inter=0 / no-constrained-intra / strong-intra-smoothing / max-merge=2 / limit-refs=3 / no-limit-modes / me=1 / subme=2 / merange=57 / temporal-mvp / weightp / no-weightb / no-analyze-src-pics / deblock=0:0 / no-sao / no-sao-non-deblock / rd=3 / no-early-skip / no-rskip / no-fast-intra / no-tskip-fast / no-cu-lossless / no-b-intra / rdpenalty=0 / psy-rd=4.00 / psy-rdoq=0.00 / no-rd-refine / analysis-mode=0 / no-lossless / cbqpoffs=0 / crqpoffs=0 / rc=abr / bitrate=4000 / qcomp=0.60 / qpstep=1 / stats-write=0 / stats-read=2 / cplxblur=20.0 / qblur=0.5 / ipratio=1.10 / pbratio=1.00 / aq-mode=0 / aq-strength=0.00 / no-cutree / zone-count=0 / no-strict-cbr / qg-size=64 / rc-grain / qpmax=69 / qpmin=0 / sar=1 / overscan=0 / videoformat=5 / range=0 / colorprim=2 / transfer=2 / colormatrix=2 / chromaloc=0 / display-window=0 / max-cll=0,0 / min-luma=0 / max-luma=255 / log2-max-poc-lsb=8 / vui-timing-info / vui-hrd-info / slices=1 / opt-qp-pps / opt-ref-list-length-pps / no-multi-pass-opt-rps / scenecut-bias=0.05 / no-opt-cu-delta-qp / no-aq-motion / no-hdr / no-hdr-opt / refine-level=5 / no-limit-sao
Default : Yes
Forced : No

Audio
ID : 2
Format : AC-3
Format/Info : Audio Coding 3
Commercial name : Dolby Digital
Codec ID : A_AC3
Duration : 1 h 48 min
Bit rate mode : Constant
Bit rate : 384 kb/s
Channel(s) : 6 channels
Channel layout : L R C LFE Ls Rs
Sampling rate : 48.0 kHz
Frame rate : 31.250 FPS (1536 SPF)
Compression mode : Lossy
Stream size : 299 MiB (9%)
Title : iTunes
Language : Russian
Service kind : Complete Main
Default : Yes
Forced : Yes

Text
ID : 3
Format : UTF-8
Codec ID : S_TEXT/UTF8
Codec ID/Info : UTF-8 Plain Text
Duration : 1 h 48 min
Bit rate : 91 b/s
Count of elements : 1335
Stream size : 72.8 KiB (0%)
Title : Full
Language : Russian
Default : No
Forced : No

Menu
00:00:00.000 : en:Chapter 1
00:08:08.446 : en:Chapter 2
00:17:53.739 : en:Chapter 3
00:27:11.839 : en:Chapter 4
00:35:40.805 : en:Chapter 5
00:44:48.352 : en:Chapter 6
00:53:43.387 : en:Chapter 7
01:01:15.547 : en:Chapter 8
01:10:55.960 : en:Chapter 9
01:19:06.492 : en:Chapter 10
01:24:28.146 : en:Chapter 11
01:34:27.996 : en:Chapter 12
01:41:26.998 : en:Chapter 13


скриншот   скриншот   скриншот  
The Suicide Squad
«Они до смерти хотят спасти мир»


Год выпуска: 2021
Страна: США, Канада, Великобритания
Жанр: Фантастика, комедия, боевик, приключения, фэнтези

Продолжительность: 02:12:02
Перевод: Дублированный | iTunes
Перевод: Авторский | М. Яроцкий
Субтитры: русские

Режиссер: Джеймс Ганн
В ролях: Марго Робби, Виола Дэвис, Йоэль Киннаман, Джай Кортни, Дэвид Дастмалчян, Даниэла Мелшиор, Стив Эйджи, Тайка Вайтити, Идрис Эльба, Джон Сина, Джаред Лето, Натан Филлион, Пит Дэвидсон, Хоакин Косио, Майкл Рукер, Алиса Брага, Сторм Рейд, Питер Капальди, Хуан Диего Ботто, Стивен Блэкхарт, Карен Фукухара, Шон Ганн, Джозеф Оливейра, Дженнифер Холлэнд, Флула Борг, Тимоти Карр, Максвелл Хайсмит, Эндрю Айала, Клайд Си Харрис, Сильвестр Сталлоне, Михаэла Хувер, Мейлинг Нг, Джош Вентура, Джеймс Уильям Баллард, Зак Катанцарети, Джон Геттье

Описание: Есть на земле одно гнилое место, откуда мечтают свалить даже самые отъявленные злодеи. Тюрьма Белль Рив – для преступников со сверхспособностями. Она же - ад. Она же - база рекрутов для суперсекретного проекта ОТРЯД САМОУБИЙЦ. Кому же посчастливится отправиться на смертельную прогулку сегодня? Бладспорт, Миротворец, Капитан Бумеранг, Крысолов Второй, Савант, Король Акул, Блэкгард, Джавелин, восхитительная Харли Квинн - на выход за полковником Флагом шагом марш! Хватайте все оружие, какое только сможете унести, и в самолет. Пункт назначения - остров Корто Мальтезе. И помните: сдохнете – ваша проблема. Шаг влево, шаг вправо, и нановзрывчатка в шее разнесет ваши наглухо съехавшие черепушки на молекулы. Об этом, уж будьте уверены, позаботится бессердечная правительственная шишка Аманда Уоллер.

Мировая премьера: 28 июля 2021


Качество: WeBRip 1080p Rip by DD2D3
Формат: MKV
Видео: V_MPEGH/ISO/HEVC;1920x1012 (1.897);4702 Kbps;59,940 fps;0,040 bpp
Аудио: русский; AC3; 384 Kbps; CBR; 6 ch ||
Аудио: русский; AC3; 640 Kbps; CBR; 6 ch ||
Навигация по главам: есть



Общее
Уникальный идентификатор : 242477980520617316879812855214283923777 (0xB66B8F735AC15835B11FD28C9413A141)
Полное имя : D:\DC Extended Universe (2013 - ....) BDRip - HEVC 1080p 10 bit 60 FPS\The Suicide Squad (2021) WeBRip - HEVC 1080p 10 bit 60 FPS.mkv
Формат : Matroska
Версия формата : Version 2
Размер файла : 5,29 Гбайт
Продолжительность : 2 ч. 12 м.
Общий поток : 5 705 Кбит/сек
Название фильма : Rip by from DD2D3
Дата кодирования : UTC 2021-10-26 17:58:54
Программа кодирования : mkvmerge v7.8.0 ('River Man') 32bit built on Apr 3 2015 12:11:22
Библиотека кодирования : libebml v1.3.1 + libmatroska v1.4.2
Attachments : poster

Видео
Идентификатор : 1
Формат : HEVC
Формат/Информация : High Efficiency Video Coding
Профиль формата : Main [email protected]@Main
Идентификатор кодека : V_MPEGH/ISO/HEVC
Продолжительность : 2 ч. 12 м.
Битрейт : 4 568 Кбит/сек
Ширина : 1 920 пикселей
Высота : 1 012 пикселей
Соотношение сторон : 1,897
Режим частоты кадров : Постоянный
Частота кадров : 59,940 (60000/1001) кадров/сек
Цветовое пространство : YUV
Субдискретизация насыщенности : 4:2:0
Битовая глубина : 10 бит
Бит/(Пиксели*Кадры) : 0.039
Размер потока : 4,23 Гбайт (80%)
Библиотека кодирования : x265 2.3+33-0b7d54dbb71a87a0:[Windows][MSVC 1800][64 bit] 10bit: KG7x [x265.ru]
Настройки программы : cpuid=1173503 / frame-threads=2 / numa-pools=4 / wpp / no-pmode / pme / no-psnr / no-ssim / log-level=2 / input-csp=1 / input-res=1920x1012 / interlace=0 / total-frames=474878 / level-idc=51 / high-tier=1 / uhd-bd=0 / ref=3 / no-allow-non-conformance / no-repeat-headers / annexb / no-aud / no-hrd / info / hash=0 / no-temporal-layers / open-gop / min-keyint=25 / keyint=250 / bframes=4 / b-adapt=2 / b-pyramid / bframe-bias=0 / rc-lookahead=20 / lookahead-slices=6 / scenecut=40 / no-intra-refresh / ctu=64 / min-cu-size=8 / no-rect / no-amp / max-tu-size=32 / tu-inter-depth=1 / tu-intra-depth=1 / limit-tu=0 / rdoq-level=0 / dynamic-rd=0.00 / no-ssim-rd / signhide / no-tskip / nr-intra=0 / nr-inter=0 / no-constrained-intra / strong-intra-smoothing / max-merge=2 / limit-refs=3 / no-limit-modes / me=1 / subme=2 / merange=57 / temporal-mvp / weightp / no-weightb / no-analyze-src-pics / deblock=0:0 / sao / no-sao-non-deblock / rd=3 / no-early-skip / rskip / no-fast-intra / no-tskip-fast / no-cu-lossless / no-b-intra / rdpenalty=0 / psy-rd=2.00 / psy-rdoq=0.00 / no-rd-refine / analysis-mode=0 / no-lossless / cbqpoffs=0 / crqpoffs=0 / rc=abr / bitrate=4700 / qcomp=0.60 / qpstep=4 / stats-write=0 / stats-read=2 / cplxblur=20.0 / qblur=0.5 / ipratio=1.40 / pbratio=1.30 / aq-mode=1 / aq-strength=1.00 / cutree / zone-count=0 / no-strict-cbr / qg-size=32 / no-rc-grain / qpmax=69 / qpmin=0 / sar=1 / overscan=0 / videoformat=5 / range=0 / colorprim=2 / transfer=2 / colormatrix=2 / chromaloc=0 / display-window=0 / max-cll=0,0 / min-luma=0 / max-luma=1023 / log2-max-poc-lsb=8 / vui-timing-info / vui-hrd-info / slices=1 / opt-qp-pps / opt-ref-list-length-pps / no-multi-pass-opt-rps / scenecut-bias=0.05 / no-opt-cu-delta-qp / no-aq-motion / no-hdr / no-hdr-opt / refine-level=5 / no-limit-sao
Default : Да
Forced : Нет

Аудио #1
Идентификатор : 2
Формат : AC-3
Формат/Информация : Audio Coding 3
Коммерческое название : Dolby Digital
Идентификатор кодека : A_AC3
Продолжительность : 2 ч. 12 м.
Вид битрейта : Постоянный
Битрейт : 384 Кбит/сек
Каналы : 6 каналов
Channel layout : L R C LFE Ls Rs
Частота : 48,0 КГц
Частота кадров : 31,250 кадров/сек (1536 SPF)
Метод сжатия : С потерями
Размер потока : 365 Мбайт (7%)
Заголовок : iTunes
Язык : Russian
Service kind : Complete Main
Default : Да
Forced : Да

Аудио #2
Идентификатор : 3
Формат : AC-3
Формат/Информация : Audio Coding 3
Коммерческое название : Dolby Digital
Идентификатор кодека : A_AC3
Продолжительность : 2 ч. 12 м.
Вид битрейта : Постоянный
Битрейт : 640 Кбит/сек
Каналы : 6 каналов
Channel layout : L R C LFE Ls Rs
Частота : 48,0 КГц
Частота кадров : 31,250 кадров/сек (1536 SPF)
Метод сжатия : С потерями
Размер потока : 608 Мбайт (11%)
Заголовок : М. Яроцкий
Язык : Russian
Service kind : Complete Main
Default : Нет
Forced : Нет

Текст
Идентификатор : 4
Формат : UTF-8
Идентификатор кодека : S_TEXT/UTF8
Идентификатор кодека/Информация : UTF-8 Plain Text
Заголовок : Full
Язык : Russian
Default : Нет
Forced : Нет

Меню
00:00:00.000 : en:Chapter 01
00:14:25.615 : en:Chapter 02
00:22:08.035 : en:Chapter 03
00:31:31.973 : en:Chapter 04
00:40:48.696 : en:Chapter 05
00:50:20.017 : en:Chapter 06
01:01:09.666 : en:Chapter 07
01:10:05.868 : en:Chapter 08
01:19:44.488 : en:Chapter 09
01:29:00.669 : en:Chapter 10
01:40:41.160 : en:Chapter 11
01:50:37.130 : en:Chapter 12
01:59:28.536 : en:Chapter 13
02:12:06.669 : en:Chapter 14
скриншот   скриншот   скриншот  


Peacemaker
«Give Peace a F#cking Chance»

Год выпуска: 2022
Страна: США
Жанр: Фантастика, комедия, боевик, приключения, фэнтези
Продолжительность: ~ 00:45:00 x 8
Перевод: Профессиональный многоголосый закадровый | Novamedia по заказу Amedia
Перевод: Профессиональный многоголосый закадровый | Baibako
Субтитры: русские
Режиссер: Джеймс Ганн
В ролях: Стив Эйджи, Даниэль Брукс, Джон Сина, Кристофер Хейердал, Дженнифер Холлэнд, Чаквуди Ивуджи, Нют Ле, Роберт Патрик, Фредди Строма, Локлин Манро
Описание: История весьма комичного и очень патриотичного суперзлодея, убивающего всех на своем пути. Его ждут нелегкие поиски преступников, безумные драки и, что самое невероятное, попытки помириться с отцом.
Мировая премьера: 13 января 2022


Качество: WeBRip 1080p Rip by DD2D3
Формат: MKV
Видео: V_MPEGH/ISO/HEVC; 1920x1080 (16:9); 59,940 fps
Аудио: русский; AC3; 384 Kbps; CBR; 6 ch ||
Аудио: русский; AAC LC; 2 ch ||
Навигация по главам: есть



Общее
Уникальный идентификатор : 203123995781683544871460706746231787233 (0x98D04232F37F9AA894AE30D0EF018EE1)
Полное имя : D:\DC Extended Universe (2013 - ....) BDRip - HEVC 1080p 10 bit 60 FPS\Peacemaker (2022) WeBRip - HEVC 1080p 10 bit 60 FPS\Season 1. Series 1 - 8 of 8.mkv
Формат : Matroska
Версия формата : Version 2
Размер файла : 1,82 Гбайт
Продолжительность : 46 м. 40 с.
Общий поток : 5 586 Кбит/сек
Название фильма : Rip by from DD2D3
Дата кодирования : UTC 2022-02-08 10:01:36
Программа кодирования : mkvmerge v7.8.0 ('River Man') 32bit built on Apr 3 2015 12:11:22
Библиотека кодирования : libebml v1.3.1 + libmatroska v1.4.2
Attachments : poster

Видео
Идентификатор : 1
Формат : HEVC
Формат/Информация : High Efficiency Video Coding
Профиль формата : Main [email protected]@Main
Идентификатор кодека : V_MPEGH/ISO/HEVC
Продолжительность : 46 м. 40 с.
Ширина : 1 920 пикселей
Высота : 1 080 пикселей
Соотношение сторон : 16:9
Режим частоты кадров : Постоянный
Частота кадров : 59,940 (60000/1001) кадров/сек
Цветовое пространство : YUV
Субдискретизация насыщенности : 4:2:0
Битовая глубина : 10 бит
Библиотека кодирования : x265 3.5+10-82786fccc:[Windows][GCC 11.1.0][64 bit] 10bit
Настройки программы : cpuid=1111039 / frame-threads=2 / numa-pools=4 / wpp / no-pmode / no-pme / no-psnr / no-ssim / log-level=2 / input-csp=1 / input-res=1920x1080 / interlace=0 / total-frames=167878 / level-idc=41 / high-tier=1 / uhd-bd=0 / ref=3 / no-allow-non-conformance / no-repeat-headers / annexb / no-aud / no-eob / no-eos / no-hrd / info / hash=0 / no-temporal-layers / open-gop / min-keyint=25 / keyint=250 / gop-lookahead=0 / bframes=4 / b-adapt=2 / b-pyramid / bframe-bias=0 / rc-lookahead=20 / lookahead-slices=6 / scenecut=40 / hist-scenecut=0 / radl=0 / no-splice / no-intra-refresh / ctu=64 / min-cu-size=8 / no-rect / no-amp / max-tu-size=32 / tu-inter-depth=1 / tu-intra-depth=1 / limit-tu=0 / rdoq-level=0 / dynamic-rd=0.00 / no-ssim-rd / signhide / no-tskip / nr-intra=0 / nr-inter=0 / no-constrained-intra / strong-intra-smoothing / max-merge=3 / limit-refs=1 / no-limit-modes / me=2 / subme=5 / merange=57 / temporal-mvp / no-frame-dup / no-hme / weightp / no-weightb / no-analyze-src-pics / deblock=0:0 / sao / no-sao-non-deblock / rd=3 / selective-sao=4 / early-skip / rskip / no-fast-intra / no-tskip-fast / no-cu-lossless / b-intra / no-splitrd-skip / rdpenalty=0 / psy-rd=2.00 / psy-rdoq=0.00 / no-rd-refine / no-lossless / cbqpoffs=0 / crqpoffs=0 / rc=abr / bitrate=5000 / qcomp=0.60 / qpstep=4 / stats-write=0 / stats-read=2 / cplxblur=20.0 / qblur=0.5 / ipratio=1.40 / pbratio=1.30 / aq-mode=2 / aq-strength=1.00 / cutree / zone-count=0 / no-strict-cbr / qg-size=32 / no-rc-grain / qpmax=69 / qpmin=0 / no-const-vbv / sar=1 / overscan=0 / videoformat=5 / range=0 / colorprim=2 / transfer=2 / colormatrix=2 / chromaloc=0 / display-window=0 / cll=0,0 / min-luma=0 / max-luma=1023 / log2-max-poc-lsb=8 / vui-timing-info / vui-hrd-info / slices=1 / no-opt-qp-pps / no-opt-ref-list-length-pps / no-multi-pass-opt-rps / scenecut-bias=0.05 / hist-threshold=0.03 / no-opt-cu-delta-qp / no-aq-motion / no-hdr10 / no-hdr10-opt / no-dhdr10-opt / no-idr-recovery-sei / analysis-reuse-level=0 / analysis-save-reuse-level=0 / analysis-load-reuse-level=0 / scale-factor=0 / refine-intra=0 / refine-inter=0 / refine-mv=1 / refine-ctu-distortion=0 / no-limit-sao / ctu-info=0 / no-lowpass-dct / refine-analysis-type=0 / copy-pic=1 / max-ausize-factor=1.0 / no-dynamic-refine / no-single-sei / no-hevc-aq / no-svt / no-field / qp-adaptation-range=1.00 / scenecut-aware-qp=0conformance-window-offsets / right=0 / bottom=0 / decoder-max-rate=0 / no-vbv-live-multi-pass
Default : Да
Forced : Нет

Аудио #1
Идентификатор : 2
Формат : AC-3
Формат/Информация : Audio Coding 3
Коммерческое название : Dolby Digital
Идентификатор кодека : A_AC3
Продолжительность : 46 м. 40 с.
Вид битрейта : Постоянный
Битрейт : 384 Кбит/сек
Каналы : 6 каналов
Channel layout : L R C LFE Ls Rs
Частота : 48,0 КГц
Частота кадров : 31,250 кадров/сек (1536 SPF)
Метод сжатия : С потерями
Размер потока : 128 Мбайт (7%)
Заголовок : Novamedia
Язык : Russian
Service kind : Complete Main
Default : Да
Forced : Нет
Statistics Tags Issue : mkvmerge v57.0.0 ('Till The End') 64-bit / mkvmerge v7.8.0 ('River Man') 32bit built on Apr 3 2015 12:11:22 2022-02-08 10:01:36
FromStats_BitRate : 384000
FromStats_Duration : 00:46:40.832000000
FromStats_FrameCount : 87526
FromStats_StreamSize : 134439936

Аудио #2
Идентификатор : 3
Формат : AAC LC
Формат/Информация : Advanced Audio Codec Low Complexity
Идентификатор кодека : A_AAC-2
Продолжительность : 46 м. 40 с.
Каналы : 2 канала
Channel layout : L R
Частота : 48,0 КГц
Частота кадров : 46,875 кадров/сек (1024 SPF)
Метод сжатия : С потерями
Заголовок : Baibako
Язык : Russian
Default : Нет
Forced : Нет

Текст
Идентификатор : 4
Формат : UTF-8
Идентификатор кодека : S_TEXT/UTF8
Идентификатор кодека/Информация : UTF-8 Plain Text
Заголовок : Full
Язык : Russian
Default : Нет
Forced : Нет
Statistics Tags Issue : mkvmerge v57.0.0 ('Till The End') 64-bit / mkvmerge v7.8.0 ('River Man') 32bit built on Apr 3 2015 12:11:22 2022-02-08 10:01:36
FromStats_BitRate : 97
FromStats_Duration : 00:46:21.021000000
FromStats_FrameCount : 636
FromStats_StreamSize : 33989

Меню
00:00:00.000 : en:Chapter 1
00:06:11.288 : en:Intro
00:07:34.705 : en:Chapter 2
00:10:06.188 : en:Chapter 3
00:20:14.630 : en:Chapter 4
00:29:29.017 : en:Chapter 5
00:46:36.000 : en:Credits
скриншот  скриншот  скриншот  скриншот  скриншот  скриншот  скриншот  скриншот  

Black Adam
«The world needed a hero. It got Black Adam»
Информация о фильме:
Название: Чёрный Адам
Оригинальное название: Black Adam
Год выхода: 2022
Жанр: Фантастика, фэнтези, боевик, приключения
Режиссер: Жауме Кольет-Серра
В ролях: Дуэйн Джонсон, Сара Шахи, Пирс Броснан, Ной Сентинео, Элдис Ходж, Марван Кензари, Куинтесса Суинделл, Виола Дэвис, Джозеф Гатт, Оделя Алеви, Ули Латукефу, Патрик Сабонгуй, Дерек Руссо
Описание: 5000 лет назад Чёрный Адам был наделен силами египетских богов и заключён в тюрьму. Теперь он освобождается из своей усыпальницы и готовится явить миру уникальный подход к борьбе за справедливость.


Страна: США, Канада, Новая Зеландия, Венгрия
Студия: 7 Bucks Productions, DC Entertainment, Flynn Picture Company
Продолжительность: 02:04:50
Перевод: Дублированный | Bravo Records Georgia
Субтитры: русские |
Навигация по главам: есть
Информация о файле:
Качество: WEB-DLRip - HEVC 1080p Rip by DD2D3
Формат: MKV
Видео: V_MPEGH/ISO/HEVC; 1920x804 (2.40:1); 3648 Kbps; 60 fps; 0,039 bpp
Аудио: русский; AC3+; 384 Kbps; CBR; 6 ch ||
Доп. информация: нет

Общее
Уникальный идентификатор : 232803887684054806806582545767441967889 (0xAF2465D93D16B5DF9370DF4384612B11)
Полное имя : E:\DC Extended Universe (2013 - ....) BDRip - HEVC 1080p 10 bit 60 FPS\Black Adam (2022) WEB-DLRip - HEVC 1080p 10 bit 60 FPS.mkv
Формат : Matroska
Версия формата : Version 2
Размер файла : 3,59 Гбайт
Продолжительность : 2 ч. 4 м.
Общий поток : 4 114 Кбит/сек
Название фильма : Rip by from DD2D3
Дата кодирования : UTC 2022-11-28 14:31:55
Программа кодирования : mkvmerge v7.8.0 ('River Man') 32bit built on Apr 3 2015 12:11:22
Библиотека кодирования : libebml v1.3.1 + libmatroska v1.4.2
Attachments : poster

Видео
Идентификатор : 1
Формат : HEVC
Формат/Информация : High Efficiency Video Coding
Профиль формата : Main [email protected]@Main
Идентификатор кодека : V_MPEGH/ISO/HEVC
Продолжительность : 2 ч. 4 м.
Битрейт : 3 648 Кбит/сек
Ширина : 1 920 пикселей
Высота : 804 пикселя
Соотношение сторон : 2,40:1
Режим частоты кадров : Постоянный
Частота кадров : 60,000 кадров/сек
Цветовое пространство : YUV
Субдискретизация насыщенности : 4:2:0
Битовая глубина : 10 бит
Бит/(Пиксели*Кадры) : 0.039
Размер потока : 3,18 Гбайт (89%)
Библиотека кодирования : x265 3.5+20-17839cc0d:[Windows][GCC 11.2.0][64 bit] 10bit
Настройки программы : cpuid=1111039 / frame-threads=2 / numa-pools=4 / wpp / no-pmode / no-pme / no-psnr / no-ssim / log-level=2 / input-csp=1 / input-res=1920x804 / interlace=0 / total-frames=449425 / level-idc=41 / high-tier=1 / uhd-bd=0 / ref=3 / no-allow-non-conformance / no-repeat-headers / annexb / no-aud / no-eob / no-eos / no-hrd / info / hash=0 / no-temporal-layers / open-gop / min-keyint=5 / keyint=240 / gop-lookahead=0 / bframes=4 / b-adapt=2 / b-pyramid / bframe-bias=0 / rc-lookahead=20 / lookahead-slices=5 / scenecut=40 / no-hist-scenecut / radl=0 / no-splice / no-intra-refresh / ctu=64 / min-cu-size=8 / no-rect / no-amp / max-tu-size=8 / tu-inter-depth=1 / tu-intra-depth=1 / limit-tu=0 / rdoq-level=0 / dynamic-rd=0.00 / no-ssim-rd / signhide / no-tskip / nr-intra=0 / nr-inter=0 / no-constrained-intra / strong-intra-smoothing / max-merge=3 / limit-refs=1 / no-limit-modes / me=1 / subme=5 / merange=57 / temporal-mvp / no-frame-dup / no-hme / weightp / no-weightb / no-analyze-src-pics / deblock=0:0 / sao / no-sao-non-deblock / rd=3 / selective-sao=4 / early-skip / rskip / no-fast-intra / no-tskip-fast / no-cu-lossless / b-intra / no-splitrd-skip / rdpenalty=0 / psy-rd=2.00 / psy-rdoq=0.00 / no-rd-refine / no-lossless / cbqpoffs=-2 / crqpoffs=-2 / rc=abr / bitrate=3750 / qcomp=0.70 / qpstep=4 / stats-write=0 / stats-read=0 / ipratio=1.38 / pbratio=1.28 / aq-mode=2 / aq-strength=1.00 / cutree / zone-count=0 / no-strict-cbr / qg-size=32 / no-rc-grain / qpmax=69 / qpmin=0 / no-const-vbv / sar=1 / overscan=0 / videoformat=5 / range=0 / colorprim=1 / transfer=1 / colormatrix=1 / chromaloc=0 / display-window=0 / cll=0,0 / min-luma=0 / max-luma=1023 / log2-max-poc-lsb=8 / vui-timing-info / vui-hrd-info / slices=1 / no-opt-qp-pps / no-opt-ref-list-length-pps / no-multi-pass-opt-rps / scenecut-bias=0.05 / hist-threshold=0.03 / no-opt-cu-delta-qp / no-aq-motion / no-hdr10 / no-hdr10-opt / no-dhdr10-opt / no-idr-recovery-sei / analysis-reuse-level=0 / analysis-save-reuse-level=0 / analysis-load-reuse-level=0 / scale-factor=0 / refine-intra=0 / refine-inter=0 / refine-mv=1 / refine-ctu-distortion=0 / no-limit-sao / ctu-info=0 / no-lowpass-dct / refine-analysis-type=0 / copy-pic=1 / max-ausize-factor=1.0 / no-dynamic-refine / no-single-sei / no-hevc-aq / no-svt / no-field / qp-adaptation-range=1.00 / scenecut-aware-qp=0conformance-window-offsets / right=0 / bottom=0 / decoder-max-rate=0 / no-vbv-live-multi-pass
Default : Да
Forced : Нет
Цветовой диапазон : Limited
Основные цвета : BT.709
Характеристики трансфера : BT.709
Коэффициенты матрицы : BT.709

Аудио
Идентификатор : 2
Формат : E-AC-3
Формат/Информация : Enhanced AC-3
Коммерческое название : Dolby Digital Plus
Идентификатор кодека : A_EAC3
Продолжительность : 2 ч. 4 м.
Вид битрейта : Постоянный
Битрейт : 384 Кбит/сек
Каналы : 6 каналов
Channel layout : L R C LFE Ls Rs
Частота : 48,0 КГц
Частота кадров : 31,250 кадров/сек (1536 SPF)
Метод сжатия : С потерями
Размер потока : 343 Мбайт (9%)
Заголовок : Дубляж, Bravo Records Georgia
Язык : Russian
Service kind : Complete Main
Default : Да
Forced : Нет
Statistics Tags Issue : mkvmerge v72.0.0 ('Minuano (Six-eight)') 64-bit 2022-11-26 07:18:11 / mkvmerge v7.8.0 ('River Man') 32bit built on Apr 3 2015 12:11:22 2022-11-28 14:31:55
FromStats_BitRate : 384000
FromStats_Duration : 02:04:50.464000000
FromStats_FrameCount : 234077
FromStats_StreamSize : 359542272

Текст
Идентификатор : 3
Формат : UTF-8
Идентификатор кодека : S_TEXT/UTF8
Идентификатор кодека/Информация : UTF-8 Plain Text
Заголовок : full
Язык : Russian
Default : Нет
Forced : Нет
Statistics Tags Issue : mkvmerge v72.0.0 ('Minuano (Six-eight)') 64-bit 2022-11-26 07:18:11 / mkvmerge v7.8.0 ('River Man') 32bit built on Apr 3 2015 12:11:22 2022-11-28 14:31:55
FromStats_BitRate : 68
FromStats_Duration : 02:03:36.542000000
FromStats_FrameCount : 1297
FromStats_StreamSize : 63943

Меню
00:00:00.000 : en:1
00:10:22.000 : en:2
00:19:56.000 : en:3
00:29:28.000 : en:4
00:38:32.000 : en:5
00:50:39.000 : en:6
01:00:17.000 : en:7
01:09:40.000 : en:8
01:19:31.000 : en:9
01:29:06.000 : en:10
01:40:14.000 : en:11
01:49:34.000 : en:12
01:53:06.000 : en:13




Скачать Расширенная вселенная DC - DC Extended Universe через торрент https://pic1.kartinco.top/new/img/2021-08/12/iv4bgjkgiztgjk96fza0sxg2z.jpg Скачать, смотреть онлайн Расширенная вселенная DC - DC Extended Universe [2013 - .... фантастика, фэнтези, боевик, приключения, BDRip - HEVC 1080p 10 bit 60 FPS Дубляж, MVO] бесплантно в хорошем качестве Описание: Перед тем как стать Чудо-Женщиной, она была Дианой — принцессой амазонок, обученной быть непобедимой воительницей. И когда на ... 10 10 4
Info! Золотая раздача, скачанное не засчитывается.
Торрент: Зарегистрирован [2022-11-29 10:48] · скачан: 8 раз
Статус: √ проверено
Размер: 69.46 GB
Как cкачать? Как скачать Расширенная вселенная DC - DC Extended Universe через торрент | UTorrent




Последний раз редактировалось: dd2d3 (2022-11-29 10:48), всего редактировалось 8 раз(а)

28-11-2019 20:33  


Отключить вcю реклaмy на сайте, в т.ч. и в плеере онлайн просмотра!

03-09-2020 19:35 Расширенная вселенная DC - DC Extended Universe Скачать торрент  

Супер!!! Просто бомба! Спасибо Автору dd2d3 за релиз и за подборку!!!

*есть один маленький минус, перевод у 2-х фильмов не полный дубль, думаю это не проблема при выходе всегда можно перезалить!



07-09-2020 20:50 Расширенная вселенная DC - DC Extended Universe Скачать торрент  

так и задумано было, там с нецензурной бранью переводы

Отряд самоубиц

На заре справедливости



09-09-2020 20:46 Расширенная вселенная DC - DC Extended Universe Скачать торрент  

dd2d3 писал(а):

так и задумано было, там с нецензурной бранью переводы

Отряд самоубиц

На заре справедливости

Я бы выбрал хороший перевод, пусть и не полной версии фильма, ситуация ровно такая же как с х/ф Ультрафиолет, гиблое дело. cry
*конечно брань и гобленские переводы, это баловство и глупость.



18-11-2020 12:28 Расширенная вселенная DC - DC Extended Universe Скачать торрент  

Да, перевод лучше без матов, иногда дети смотрят или родители рядом с детьми.



28-11-2020 00:55 Расширенная вселенная DC - DC Extended Universe Скачать торрент  

dd2d3,На заре справедливости и хищные птицы битые файлы! Перезалей!



28-11-2020 19:04 Расширенная вселенная DC - DC Extended Universe Скачать торрент  

dd2d3 писал(а):

Хищные птицы

CRC32: 67F4B060
MD5: 105B52091B8054A0CCE19096238CD067
SHA-1: 180452F0E3C69ABC4AE4BB2CCA4321C95EAE957C

На заре справедливости

CRC32: BA181CC6
MD5: D3DCBB0495DDE4FEB786009C65059948
SHA-1: C3C2561639F32EE8B0B003892B781B39F0F87EF1

такие суммы

После скачивания любые действия с этими файлами, а именно только эти два фильма пк жалуется на якобы слишком длиное название файла. Хотя с названием всё норм! Только шкурка как на других не подгружена! Удаляется только сторонними прогамми, типо Unlocker!
Соответсвенно суммы тоже нет возможности проверить!
Перекачивал и по отдельности и всё скопом несколько раз! Результат тот же!



28-11-2020 20:32 Расширенная вселенная DC - DC Extended Universe Скачать торрент  

1. Оставь название фильма на английском или русском языке, через тотал командер переменуй.
2. Уменьше количество папок к данному файлу с длинными именами

Допустим у меня винда ругается в том случае, если путь такой

D:\Marvel Comics (2000 - ....) BDRip - HEVC 1080p 10 bit 60 FPS\Marvel Cinematic Universe television series (2013 - .....) BDRip - HEVC 1080p 10 bit 60 FPS\Inhumans (2017 - 2018) BDRip - HEVC 1080p 10 bit 60 FPS\Season 1\Season 1. Series 1 - 8 of 8 после этого файлы нельзя открыть - превышает 255 символов.

Убираю Season 1\

D:\Marvel Comics (2000 - ....) BDRip - HEVC 1080p 10 bit 60 FPS\Marvel Cinematic Universe television series (2013 - .....) BDRip - HEVC 1080p 10 bit 60 FPS\Inhumans (2017 - 2018) BDRip - HEVC 1080p 10 bit 60 FPS\Season 1. Series 1 - 8 of 8 серии начинают открываться



28-11-2020 21:30 Расширенная вселенная DC - DC Extended Universe Скачать торрент  

dd2d3 писал(а):

1. Оставь название фильма на английском или русском языке, через тотал командер переменуй.
2. Уменьше количество папок к данному файлу с длинными именами

Допустим у меня винда ругается в том случае, если путь такой

D:\Marvel Comics (2000 - ....) BDRip - HEVC 1080p 10 bit 60 FPS\Marvel Cinematic Universe television series (2013 - .....) BDRip - HEVC 1080p 10 bit 60 FPS\Inhumans (2017 - 2018) BDRip - HEVC 1080p 10 bit 60 FPS\Season 1\Season 1. Series 1 - 8 of 8 после этого файлы нельзя открыть - превышает 255 символов.

Убираю Season 1\

D:\Marvel Comics (2000 - ....) BDRip - HEVC 1080p 10 bit 60 FPS\Marvel Cinematic Universe television series (2013 - .....) BDRip - HEVC 1080p 10 bit 60 FPS\Inhumans (2017 - 2018) BDRip - HEVC 1080p 10 bit 60 FPS\Season 1. Series 1 - 8 of 8 серии начинают открываться

После скачивания твоя папка лежит в корне диска! Повторюсь проблема только с двумя фильмами! С остальными проблем нет! Ну если не считать отсутствие дубля в рокенрольщике!



29-11-2020 12:04 Расширенная вселенная DC - DC Extended Universe Скачать торрент  

Перезалил файлы

Добавил переводы дублированные:

На заре справедливости
Отряд самоубийц



01-12-2020 22:05 Расширенная вселенная DC - DC Extended Universe Скачать торрент  

dd2d3 писал(а):

Перезалил файлы

Добавил переводы дублированные:

На заре справедливости
Отряд самоубийц



Идеально!



02-12-2020 14:13 Расширенная вселенная DC - DC Extended Universe Скачать торрент  

Всем добрый ребята дайте докачать нет раздачи



02-12-2020 17:42 Расширенная вселенная DC - DC Extended Universe Скачать торрент  

я постоянно на раздаче



15-03-2021 19:09 Расширенная вселенная DC - DC Extended Universe Скачать торрент  

Добавил Wonder Woman 1984



15-03-2021 22:24 Расширенная вселенная DC - DC Extended Universe Скачать торрент  

Где раздача? скорость 0.... для чего выкладываешь если нет источника?



16-03-2021 15:20 Расширенная вселенная DC - DC Extended Universe Скачать торрент  

Я стою на раздаче постоянно.



Друзья, наш проект PiratBit построен на чистом энтузиазме. Денег от рекламы он приносит мало, потому как нет хороших, богатых рекламодателей, которые бы хотели работать с сайтами, которые нарушают законодательство той или иной страны, да и вешать какую-то шлако-рекламу с вирусами тоже мы не хотим, поскольку мы уважаем своих пользователей и Ваша безопасность на нашем сайте для нас превыше всего. В связи с этим, мы вынуждены просить помощи у каждого из Вас. Каких-то 3, 5, 10 рублей для каждого из Вас по большому счету копейки, а для нас это будет хорошая поддержка.
Нашими приоритетами всегда были качество и быстрота везде и во всем!!!
Технически так сложилось, чтобы все "летало" мы используем 4 мощных абузоустойчивых сервера, каждый из которых стоит 100$ в месяц.
Ребята, мы будем рады любой помощи, надеюсь на понимание...

Важно, если ваш платеж составляет больше 100 руб.(единоразово) то мы для вас отключим рекламу на месяц, 200=2мес., 300=3мес., 400=4мес., если больше чем 499 руб.(единоразово) то на 6 месяцев, УКАЗЫВАЙТЕ СВОЙ НИК В ПРИМЕЧАНИИ К ПЛАТЕЖУ!


Яндекс Деньги,QIWI,WebMoney,Steam,Payeer,СберБанк,Мобильный,BitCoin,PayPal

16-03-2021 15:43 Расширенная вселенная DC - DC Extended Universe Скачать торрент  

dd2d3 писал(а):

Я стою на раздаче постоянно.

твой скриншот ничего не даёт по статистике раздачи источника не было более 20 часов и где скорость, алло?! это торрент трекер, а не файлообменник... если у тебя торрент залит ещё и на другом трекере скорость раздели равномерно... и баннер пожертвований убери они только с соглашения администрации... при заливке торрент файла... его нужно скачать и прохешировать, а не залил и забил.... Исправляй



16-03-2021 19:36 Расширенная вселенная DC - DC Extended Universe Скачать торрент  

Расширенная вселенная DC - DC Extended Universe [2013 - .... фантастика, фэнтези, боевик, приключения, BDRip - HEVC 1080p 10 bit 60 FPS Дубляж]

Администрация, просьба проверить на наличие баннера о пожертвовании и источника раздачи



16-03-2021 20:35 Расширенная вселенная DC - DC Extended Universe Скачать торрент  

Не могу понять, что не устраивает вас, я один раздаю сборку. Народ который хотел уже скачал и забил на это, на скока я знаю пользователь V&S раздает 3 месяца и уходит с раздачи. Заблокируют меня и дальше что?



17-03-2021 20:53 Расширенная вселенная DC - DC Extended Universe Скачать торрент  

dd2d3 писал(а):

Не могу понять, что не устраивает вас, я один раздаю сборку. Народ который хотел уже скачал и забил на это, на скока я знаю пользователь V&S раздает 3 месяца и уходит с раздачи. Заблокируют меня и дальше что?

Друг, я тут, на раздаче время от времени, ухожу только если выложишь новое в коллекции, если лучше на мой взгляд, тогда старую оставляю и раздаю новую Таков Путь, так просто нечего не бросаю, можете поверить, можете проверить в моём профиле



17-03-2021 21:16 Расширенная вселенная DC - DC Extended Universe Скачать торрент  

dd2d3 писал(а):

Добавил Wonder Woman 1984

Друг, великолепно! Спасибо!

Кто же знал? я не пределах случайно просматривал...
сейчас перешеим, качнём, раздадим!

*сложилось впечатление что Wonder Woman 1984 не совсем законченный может это только моё впечатление






Последний раз редактировалось: V&S (2021-03-20 23:00), всего редактировалось 2 раз(а)

17-03-2021 21:27 Расширенная вселенная DC - DC Extended Universe Скачать торрент  

Ksenia писал(а):

Где раздача? скорость 0.... для чего выкладываешь если нет источника?

Спокойно!
Я рядом, торрент перезалит, я незаметил, мог и позже заметить, надо было постучать мне в личку, звать скачавших перезалитый торрент раздавать не судьба! Всё в пределах правил!



18-03-2021 08:05 Расширенная вселенная DC - DC Extended Universe Скачать торрент  

V&S писал(а):

Ksenia писал(а):

Где раздача? скорость 0.... для чего выкладываешь если нет источника?

Спокойно!
Я рядом, торрент перезалит, я незаметил, мог и позже заметить, надо было постучать мне в личку, звать скачавших перезалитый торрент раздавать не судьба! Всё в пределах правил!

Тоже помогу с раздачей!
Кипиш поднимать не зачем! Итак производителей рипов не осталось! Так глупые пользователи последних кашмарят!



19-03-2021 07:47 Расширенная вселенная DC - DC Extended Universe Скачать торрент  

А что за хрень - Лига справедливости Зака Снайдера 2021 года?
И стоит суда добавлять?



19-03-2021 15:20 Расширенная вселенная DC - DC Extended Universe Скачать торрент  

Это первоначальная версия Лиги Справедливости 2017 года, до ухода Зака Снайдера с поста режиссера, исходя из этого можно назвать Лига Справедливости Режиссерская версия



Дорогой пользователь! Огромная просьба, поблагодарите релизера, оцените раздачу и оставьте свои комментарий, если Вы скачали Расширенная вселенная DC - DC Extended Universe через торрент бесплатно!!
Комментировать посты могут только пользователи прошедшие не сложную регистрацию
Показать сообщения:    


Расширенная вселенная DC - DC Extended Universe через торрент
Скачать бесплатно Расширенная вселенная DC - DC Extended Universe
Расширенная вселенная DC - DC Extended Universe скачать торрент
Расширенная вселенная DC - DC Extended Universe смотреть онлайн
Cкачать фильм Расширенная вселенная DC - DC Extended Universe бесплатно
Расширенная вселенная DC - DC Extended Universe скачать торрент в хорошем качестве
Расширенная вселенная DC - DC Extended Universe смотреть онлайн бесплатно в хорошем качестве
Вы не можете начинать темы
Вы не можете отвечать на сообщения
Вы не можете редактировать свои сообщения
Вы не можете удалять свои сообщения
Вы не можете голосовать в опросах
Вы не можете прикреплять файлы к сообщениям
Вы можете скачивать файлы
Расширенная вселенная DC - DC Extended Universe [2013 - .... фантастика, фэнтези, боевик, приключения, BDRip - HEVC 1080p 10 bit 60 FPS Дубляж, MVO] смотреть онлайн, скачать торрент picoco.icu