Ссылка на приватное зеркало нашего сайта всего за 1$. Внимание количество ограничено!!!

2 сезон

iTunes

1 сезон

1

iTunes

iTunes

iTunes

1 сезон

RePack

30

ИГРА 18+

pack

ВАЖНО

!!Акция!!

Alien_RageХит недели

RePack

MK11
pack

Забери бонус

RePack

jed

!!Акция!!

Alien_Rage

RePack

fifa19

RePack

Assassins Creed: Odyssey

RePack

NEED FOR SPEED™ PAYBACK

4 сезон

9 сезон

Бесстыжие 9 сезон

Все сериалы

все сериалы на PB.wtf

RePack

FAR CRY 5
  

Хороший человек / Сезон: 1 / Серии: 1-9 из 9 (Константин Богомолов) [2020, Драма, триллер, WEBRip-AVC] pb.wtf

Хороший человек через торрент pb.wtf

Раздают: 1 [ 0 KB/s ]
Размер: 5.22 GB | Добавлен: 10 д. назад | Торрент скачан:45 раз
Скачать  

21-08-2020 18:38 Хороший человек Скачать торрент  

Хороший человек
Год выпуска: 2020
Страна: Россия
Выпущено: START STUDIO
Жанр: Драма, триллер
Продолжительность: ~ 00:55:00
Субтитры: отсутствуют

Режиссер: Константин Богомолов



В ролях: Никита Ефремов, Юлия Снигирь, Андрей Бурковский, Александра Ребенок, Ксения Собчак, Игорь Гордин, Игорь Черневич, Алексей Вертков, Дмитрий Куличков, Константин Мурзенко, Александр Семчев, Александр Марин, Дарья Жовнер, Владимир Храбров, Валерий Дегтярь, Василий Реутов, Артём Михалков, Геннадий Вырыпаев, Екатерина Дурова, Ольга Лапшина, Игорь Грабузов, Илья Дель, Кирилл Власов, Павел Ворожцов, Игорь Хрипунов, Дмитрий Лысенков, Ольга Бешуля, Ванда Конисевич

Описание: В небольшой провинциальный город приезжает молодой следователь из Москвы Евгения Ключевская. Начальство поручило ей проверить информацию о существовании серийного убийцы. Жители встречают ее холодно: похоже, каждый прячет в шкафу по скелету. Зато напарником Жени становится местный следователь Иван Крутихин, который готов помогать в поисках маньяка.

Качество: WEBRip-AVC
Формат: MKV

Видео: MPEG-4 AVC, ~ 1600 Кбит/с, 1024x576, 25 кадр/с
Аудио: 48.0 kHz, AC3 Dolby Digital, 2/0 (L,R) ch, ~ 192 kbps
скриншот  скриншот  скриншот  скриншот  

General
Unique ID : 213107689354043804506244961050764641768 (0xA0530C4BBBF649F09073A06643CA05E8)
Complete name : F:\Хороший человек.(2020).WEBRip.(AVC).Files-x\01.Horoshiy chelovek.(2020).WEBRip.(AVC).by.Серый1779.Files-x.mkv
Format : Matroska
Format version : Version 2
File size : 711 MiB
Duration : 55 min 26 s
Overall bit rate : 1 793 kb/s
Encoded date : UTC 2020-08-20 07:12:27
Writing application : mkvmerge v7.8.0 ('River Man') 32bit built on Apr 3 2015 12:11:22
Writing library : libebml v1.3.1 + libmatroska v1.4.2

Video
ID : 1
Format : AVC
Format/Info : Advanced Video Codec
Format profile : High@L4.1
Format settings : CABAC / 9 Ref Frames
Format settings, CABAC : Yes
Format settings, RefFrames : 9 frames
Codec ID : V_MPEG4/ISO/AVC
Duration : 55 min 26 s
Bit rate : 1 600 kb/s
Width : 1 024 pixels
Height : 576 pixels
Display aspect ratio : 16:9
Frame rate mode : Constant
Frame rate : 25.000 FPS
Color space : YUV
Chroma subsampling : 4:2:0
Bit depth : 8 bits
Scan type : Progressive
Bits/(Pixel*Frame) : 0.109
Stream size : 621 MiB (87%)
Writing library : x264 core 146 r2538 121396c
Encoding settings : cabac=1 / ref=9 / deblock=1:-2:-1 / analyse=0x3:0x133 / me=umh / subme=9 / psy=1 / psy_rd=1.00:0.15 / mixed_ref=1 / me_range=32 / chroma_me=1 / trellis=2 / 8x8dct=1 / cqm=0 / deadzone=21,11 / fast_pskip=0 / chroma_qp_offset=-3 / threads=18 / lookahead_threads=3 / sliced_threads=0 / nr=0 / decimate=1 / interlaced=0 / bluray_compat=0 / constrained_intra=0 / bframes=9 / b_pyramid=2 / b_adapt=2 / b_bias=0 / direct=1 / weightb=1 / open_gop=0 / weightp=2 / keyint=250 / keyint_min=25 / scenecut=40 / intra_refresh=0 / rc=2pass / mbtree=0 / bitrate=1600 / ratetol=1.0 / qcomp=0.60 / qpmin=0 / qpmax=69 / qpstep=4 / cplxblur=20.0 / qblur=0.5 / ip_ratio=1.40 / pb_ratio=1.30 / aq=2:1.00
Default : Yes
Forced : No
Color range : Limited
Color primaries : BT.709
Transfer characteristics : BT.709
Matrix coefficients : BT.709

Audio
ID : 2
Format : AC-3
Format/Info : Audio Coding 3
Format settings, Endianness : Big
Codec ID : A_AC3
Duration : 55 min 26 s
Bit rate mode : Constant
Bit rate : 192 kb/s
Channel(s) : 2 channels
Channel positions : Front: L R
Sampling rate : 48.0 kHz
Frame rate : 31.250 FPS (1536 SPF)
Bit depth : 16 bits
Compression mode : Lossy
Stream size : 76.1 MiB (11%)
Service kind : Complete Main
Default : Yes
Forced : No

Внимание! Раздача ведётся путём добавления новых серий; при каждом добавлении создаётся новый торрент.
Чтобы начать докачку новой серии, пользователям необходимо сделать следующее:
1. Остановить скачивание;
2. Удалить старый торрент у себя из клиента (старые серии удалять не надо);
3. Скачать новый торрент и запустить его у себя в клиенте вместо старого, при этом указать клиенту путь в старую папку куда и должно происходить скачивание новых серий. Ваш клиент при этом должен произвести хеширование (проверку) старой папки и будет докачивать только те серии, которых у вас ещё нет. Старые серии при этом не удаляются, а продолжают раздаваться! Eсли вы уже удалили старые серии, то предотвратить повторную закачку старых серий можно, отжав галочку в соответствующих местах при запуске нового торрента.

pb.wtf



Скачать Хороший человек через торрент https://i112.fastpic.ru/big/2020/0820/b6/4d29a1820761f12839c1f2d00ac97bb6.jpg Скачать фильм Хороший человек через торрент бесплантно в хорошем качестве Описание: В небольшой провинциальный город приезжает молодой следователь из Москвы Евгения Ключевская. Начальство поручило ей проверить ... 10 10 5
Торрент: Зарегистрирован [2020-10-15 07:10] · скачан: 45 раз
Статус: √ проверено
Размер: 5.22 GB
Как cкачать? Как скачать Хороший человек через торрент | qTorrent

% Раздел Тема Автор DL S | L
Наши сериалы [ 4.91 GB ] Хороший человек / Сезон: 1 / Серии: 1-9 из 9 [2020 WEBRip] bober100 Скачать
4 | 0
Наши сериалы [ 10.77 GB ] Хороший человек / Сезон: 1 / Серии: 1-9 из 9 [2020 WEBRip 720p] bober100 Скачать
3 | 0
Наши сериалы [ 81.12 GB ] Хороший человек / Сезон: 1 / Серии: 1-9 из 9 [2020 WEBRip 2160p] bober100 Скачать
3 | 0
Наши сериалы [ 19.17 GB ] Хороший человек / Сезон: 1 / Серии: 1-9 из 9 [2020 WEBRip 1080p] bober100 Скачать
2 | 0
Наши сериалы [ 5.27 GB ] Хороший человек / Сезон: 1 / Серии: 1-9 из 9 [2020 WEBRip] bober100 Скачать
1 | 0

28-11-2019 20:33  

Отключить всю рекламу на сайте

    Дорогой пользователь! Огромная просьба, поблагодарите релизера, оцените раздачу и оставьте свои комментарий, если Вы скачали Хороший человек через торрент бесплатно! Внесите свою лепту в развитие PiratBit!
    Комментировать посты могут только пользователи прошедшие не сложную регистрацию
    Показать сообщения:    

    Хороший человек через торрент
    Скачать бесплатно Хороший человек
    Хороший человек скачать торрент
    Хороший человек смотреть онлайн
    Cкачать фильм Хороший человек бесплатно
    Хороший человек скачать торрент в хорошем качестве
    Хороший человек смотреть онлайн бесплатно в хорошем качестве


    Вы не можете начинать темы
    Вы не можете отвечать на сообщения
    Вы не можете редактировать свои сообщения
    Вы не можете удалять свои сообщения
    Вы не можете голосовать в опросах
    Вы не можете прикреплять файлы к сообщениям
    Вы можете скачивать файлы