Ссылка на приватное зеркало нашего сайта всего за 1$. Внимание количество ограничено!!!

2 сезон

iTunes

1 сезон

1

2 сезон

2 сезон

iTunes

1 сезон

RePack

30

Новинка

ВАЖНО

ИГРА 18+

pack

RePack

MK11
pack

Забери бонус

RePack

jed

!!Акция!!

Alien_Rage

RePack

fifa19

RePack

Assassins Creed: Odyssey

RePack

NEED FOR SPEED™ PAYBACK

4 сезон

9 сезон

Бесстыжие 9 сезон

Все сериалы

все сериалы на PB.wtf

RePack

FAR CRY 5
  

Дикий мёд / Delibal (Али Билгин) [2015, драма, мелодрама, WEB-DL 1080p] [MVO] (FocusX) pb.wtf

Дикий мёд через торрент pb.wtf

Размер: 3.71 GB | Добавлен: 3 мес. 13 д. назад | Торрент скачан:47 раз
Скачать  

22-08-2020 11:46 Дикий мёд Скачать торрент  

Дикий мёд / Delibal

Название: Дикий мёд
Оригинальное название: Delibal
Год выхода: 2015
Жанр: Драма, мелодрама
Страна: Турция
Продолжительность: 01:52:00
Переывод: Профессиональное (многоголосое) | FocusX
Субтитры: Нет
Примечание: Без рекламы!

Режиссер: Али Билгин

В ролях: Чагатай Улусой, Лейла Лидия Тугутлу, Хусеин Авни Даньял, Мустафа Авкыран, Лочин Джейлан, Барыш Айтач, Эмре Караоглу, Назан Кесаль

О фильме: История страстной любви студентов университета Барыша и Фюсун. Барыш учится на факультете архитектуры в университете. Его хобби - игра на барабанах, от этого и от студенческой жизни он получает огромное удовольствие и наслаждение. Когда парень встречает Фюсун, его душа наполняется чувством, совершенно новым для него, подобного раньше Барыш не испытывал… Он понимает, что в этот раз настоящая любовь вошла в его сердце и в его жизнь. Кто эта девушка? Где она живет? Он должен найти ее, даже не зная имени незнакомки. Барыш ищет и находит, но у Фюсун есть только одно желание - закончить университет с отличием и продолжить обучение в Америке, получив степень магистра. Парень должен как-то добиться ее расположения. Красивый, умный и искренний Барыш успешен в этом направлении. Он умудряется добиться своего - Фюсун в него влюбляется, и они женятся. Все, как в сказке… Но однажды этой счастливой сказке приходит конец…



Формат: MKV
Качество: WEB-DL 1080p
Видео: MPEG-4 AVC, 4000 Kb/s, 1920х1080
Аудио #1: Russian: 48 kHz, AC3 Dolby Digital, 3/2 (L, C, R, l, r) + LFE ch, ~448 Kbps | MVO | FocusX
Аудио #2: Turkish: 48 kHz, AC3 Dolby Digital, 3/2 (L, C, R, l, r) + LFE ch, ~448 Kbps | Origina
General

Unique ID: 253709318778462275019951008538192634953 (0xBEDEA32DFE4BCAAEA1DE508CC1A1E449)

Complete name: Delibal.WEB-DL.1080p.FocusX.mkv

Format: Matroska

Format version: Version 4

File size: 3.71 GiB

Duration: 1 h 52 min

Overall bit rate mode: Variable

Overall bit rate: 4 720 kb/s

Movie name: Delibal @ FocusX

Encoded date: UTC 2019-09-27 08:38:23

Writing application: mkvmerge v8.1.0 ('Psychedelic Postcard') 64bit

Writing library: libebml v1.3.1 + libmatroska v1.4.2



Video

ID: 1

Format: AVC

Format/Info: Advanced Video Codec

Format profile: Main@L4

Format settings: CABAC / 3 Ref Frames

Format settings, CABAC: Yes

Format settings, Reference frames: 3 frames

Codec ID: V_MPEG4/ISO/AVC

Duration: 1 h 52 min

Bit rate mode: Variable

Bit rate: 3 830 kb/s

Maximum bit rate: 5 745 kb/s

Width: 1 920 pixels

Height: 1 080 pixels

Display aspect ratio: 16:9

Frame rate mode: Constant

Frame rate: 25.000 FPS

Color space: YUV

Chroma subsampling: 4:2:0

Bit depth: 8 bits

Scan type: Progressive

Bits/(Pixel*Frame): 0.074

Stream size: 2.93 GiB (79%)

Writing library: x264 core 148 r2715 7e75228

Encoding settings: cabac=1 / ref=3 / deblock=1:0:0 / analyse=0x1:0x111 / me=umh / subme=10 / psy=1 / psy_rd=1.00:0.00 / mixed_ref=1 / me_range=24 / chroma_me=1 / trellis=2 / 8x8dct=0 / cqm=0 / deadzone=21, 11 / fast_pskip=1 / chroma_qp_offset=-2 / threads=8 / lookahead_threads=1 / sliced_threads=0 / nr=0 / decimate=1 / interlaced=0 / bluray_compat=0 / stitchable=1 / constrained_intra=0 / bframes=2 / b_pyramid=0 / b_adapt=2 / b_bias=0 / direct=3 / weightb=1 / open_gop=0 / weightp=2 / keyint=50 / keyint_min=26 / scenecut=0 / intra_refresh=0 / rc_lookahead=50 / rc=2pass / mbtree=1 / bitrate=3830 / ratetol=1.0 / qcomp=0.50 / qpmin=6 / qpmax=51 / qpstep=4 / cplxblur=20.0 / qblur=0.5 / vbv_maxrate=5745 / vbv_bufsize=7660 / nal_hrd=vbr / filler=0 / ip_ratio=1.40 / aq=1:1.00

Default: Yes

Forced: No



Audio #1

ID: 2

Format: AC-3

Format/Info: Audio Coding 3

Commercial name: Dolby Digital

Codec ID: A_AC3

Duration: 1 h 52 min

Bit rate mode: Constant

Bit rate: 448 kb/s

Channel(s): 6 channels

Channel layout: L R C LFE Ls Rs

Sampling rate: 48.0 kHz

Frame rate: 31.250 FPS (1536 SPF)

Compression mode: Lossy

Stream size: 360 MiB (9%)

Title: MVO FocusX

Language: Russian

Service kind: Complete Main

Default: Yes

Forced: No



Audio #2

ID: 3

Format: AC-3

Format/Info: Audio Coding 3

Commercial name: Dolby Digital

Codec ID: A_AC3

Duration: 1 h 52 min

Bit rate mode: Constant

Bit rate: 448 kb/s

Channel(s): 6 channels

Channel layout: L R C LFE Ls Rs

Sampling rate: 48.0 kHz

Frame rate: 31.250 FPS (1536 SPF)

Compression mode: Lossy

Stream size: 360 MiB (9%)

Language: Turkish

Service kind: Complete Main

Default: No

Forced: No
скриншот  скриншот  скриншот  
pb.wtf



Скачать Дикий мёд через торрент https://d.radikal.ru/d42/2008/48/c9211b8c9e69.png Скачать фильм Дикий мёд через торрент бесплантно в хорошем качестве О фильме: История страстной любви студентов университета Барыша и Фюсун. Барыш учится на факультете архитектуры в университете. Его хобби - ... 7.4 10 5
Торрент: Зарегистрирован [2020-08-22 11:46] · скачан: 47 раз
Статус: √ проверено
Размер: 3.71 GB
Как cкачать? Как скачать Дикий мёд через торрент | qTorrent

% Раздел Тема Автор DL S | L
Фильмы 2015 [DVDrip, WEB-DLRip, HDrip] [ 1.46 GB ] Дикий мёд / Delibal [2015 WEB-DLRip] [MVO] Russian Mafia Скачать
2 | 0

28-11-2019 20:33  

Отключить всю рекламу на сайте

22-08-2020 12:18 Дикий мёд Скачать торрент  

фуууу ... турки .pb.wtf



    Дорогой пользователь! Огромная просьба, поблагодарите релизера, оцените раздачу и оставьте свои комментарий, если Вы скачали Дикий мёд через торрент бесплатно! Внесите свою лепту в развитие PiratBit!
    Комментировать посты могут только пользователи прошедшие не сложную регистрацию
    Показать сообщения:    

    Дикий мёд через торрент
    Скачать бесплатно Дикий мёд
    Дикий мёд скачать торрент
    Дикий мёд смотреть онлайн
    Cкачать фильм Дикий мёд бесплатно
    Дикий мёд скачать торрент в хорошем качестве
    Дикий мёд смотреть онлайн бесплатно в хорошем качестве


    Вы не можете начинать темы
    Вы не можете отвечать на сообщения
    Вы не можете редактировать свои сообщения
    Вы не можете удалять свои сообщения
    Вы не можете голосовать в опросах
    Вы не можете прикреплять файлы к сообщениям
    Вы можете скачивать файлы