Ссылка на приватное зеркало нашего сайта всего за 1$. Внимание количество ограничено!!!

2 сезон

iTunes

1 сезон

1

2 сезон

2 сезон

iTunes

1 сезон

RePack

30

Новинка

ВАЖНО

ИГРА 18+

pack

RePack

MK11
pack

Забери бонус

RePack

jed

!!Акция!!

Alien_Rage

RePack

fifa19

RePack

Assassins Creed: Odyssey

RePack

NEED FOR SPEED™ PAYBACK

4 сезон

9 сезон

Бесстыжие 9 сезон

Все сериалы

все сериалы на PB.wtf

RePack

FAR CRY 5
  

Каникулы Off-Line 2 (Эрнар Курмашев, Руслан Акун) [2019, комедия, WEB-DLRip-AVC] [IVI] от wolf1245 & MediaBit pb.wtf

Каникулы Off-Line 2 через торрент pb.wtf

Раздают: 2 [ 0 KB/s ]
Размер: 1.62 GB | Добавлен: 2 мес. 30 д. назад | Торрент скачан:28 раз
Скачать  

24-08-2020 16:53 Каникулы Off-Line 2 Скачать торрент  


Каникулы Off-Line 2
Информация о фильме:
Название: Каникулы Off-Line 2
Год выхода: 2019
Жанр: комедия
Режиссер: Эрнар Курмашев, Руслан Акун
В ролях: Мейргат Амангелдин, Бекзат Елеусизов, Еламан Есентаев, Динара Бактыбаева, Азамат Шаргынов, Магжан Хамит, Арман Джаксыгулов, Зарина Нуржанова, Артур Аскарулы
Описание: Кайрат принимает предложение инвесторов и уходит в крупный холдинг на руководящую должность. А главными в лагере «Аулкемп» оставляет своих безалаберных друзей Дастана и Болата, которые, в свою очередь, ругаются в первый же день и делят лагерь на два противоборствующих клана. Смогут ли «взрослые» дети Дастан и Болат справиться с новым потоком городских избалованных детей, которые ни дня не были в настоящем ауле?



Страна: Казахстан
Студия: Amanat Film, Astana Film Fund
Продолжительность: 01:42:20
Перевод: Оригинал - Цифровая лицензия IVI



Информация о файле:
Кодек: AVC
Формат: MKV
Качество: WEB-DLRip-AVC
Видео: MPEG-4 AVC, 960x400 (2,40:1), 1885 kbps, 24.000 fps, 0.205
Аудио RU: AC3, 6 ch, 48 kHz, 384 kbps
Субтитры: Russian [на казахскую речь] (HardSub), Kazakh [на русскую речь] (HardSub)

|


Общее
Уникальный идентификатор : 193600531345083894258873131056917971422 (0x91A61B2687CA216B98A600A2BA7D01DE)
Полное имя : D:uTorrentРипы_от_wolf1245_MediaBitКаникулы Off-Line 2 (2019) wolf1245_MediaBit.mkv
Формат : Matroska
Версия формата : Version 4
Размер файла : 1,62 Гбайт
Продолжительность : 1 ч. 42 м.
Общий поток : 2 271 Кбит/сек
Название фильма : Каникулы Off-Line 2 (2019) wolf1245_MediaBit
Дата кодирования : UTC 2020-08-24 16:37:18
Программа кодирования : mkvmerge v49.0.0 ('Sick Of Losing Soulmates') 64-bit
Библиотека кодирования : libebml v1.4.0 + libmatroska v1.6.1
Обложка : Yes
Attachments : Cover.png

Видео
Идентификатор : 1
Формат : AVC
Формат/Информация : Advanced Video Codec
Профиль формата : High@L4.1
Настройки формата : CABAC / 10 Ref Frames
Параметр CABAC формата : Да
Параметр RefFrames формата : 10 кадров
Идентификатор кодека : V_MPEG4/ISO/AVC
Продолжительность : 1 ч. 42 м.
Битрейт : 1 885 Кбит/сек
Ширина : 960 пикселей
Высота : 400 пикселей
Соотношение сторон : 2,40:1
Режим частоты кадров : Постоянный
Частота кадров : 24,000 кадра/сек
Цветовое пространство : YUV
Субдискретизация насыщенности : 4:2:0
Битовая глубина : 8 бит
Тип развёртки : Прогрессивная
Бит/(Пиксели*Кадры) : 0.205
Размер потока : 1,35 Гбайт (83%)
Заголовок : wolf1245_MediaBit
Библиотека кодирования : x264 core 157 r2958 57baac4
Настройки программы : cabac=1 / ref=10 / deblock=1:-3:-3 / analyse=0x3:0x133 / me=umh / subme=11 / psy=1 / psy_rd=1.00:0.15 / mixed_ref=1 / me_range=48 / chroma_me=1 / trellis=2 / 8x8dct=1 / cqm=0 / deadzone=21,11 / fast_pskip=0 / chroma_qp_offset=-3 / threads=10 / lookahead_threads=2 / sliced_threads=0 / nr=0 / decimate=0 / interlaced=0 / bluray_compat=0 / constrained_intra=0 / bframes=10 / b_pyramid=2 / b_adapt=2 / b_bias=10 / direct=3 / weightb=1 / open_gop=0 / weightp=2 / keyint=240 / keyint_min=24 / scenecut=40 / intra_refresh=0 / rc_lookahead=60 / rc=2pass / mbtree=0 / bitrate=1885 / ratetol=1.0 / qcomp=0.60 / qpmin=0 / qpmax=69 / qpstep=4 / cplxblur=20.0 / qblur=0.5 / vbv_maxrate=50000 / vbv_bufsize=62500 / nal_hrd=none / filler=0 / ip_ratio=1.40 / pb_ratio=1.30 / aq=1:1.00
Default : Да
Forced : Нет

Аудио
Идентификатор : 2
Формат : AC-3
Формат/Информация : Audio Coding 3
Коммерческое название : Dolby Digital
Идентификатор кодека : A_AC3
Продолжительность : 1 ч. 42 м.
Вид битрейта : Постоянный
Битрейт : 384 Кбит/сек
Каналы : 6 каналов
Channel layout : L R C LFE Ls Rs
Частота : 48,0 КГц
Частота кадров : 31,250 кадров/сек (1536 SPF)
Метод сжатия : С потерями
Размер потока : 281 Мбайт (17%)
Заголовок : IVI
Язык : Russian
Service kind : Complete Main
Default : Да
Forced : Нет
Релиз от: &
pb.wtf



Скачать Каникулы Off-Line 2 через торрент https://d.radikal.ru/d32/2008/39/1e6de845900e.png Скачать фильм Каникулы Off-Line 2 через торрент бесплантно в хорошем качестве Описание: Кайрат принимает предложение инвесторов и уходит в крупный холдинг на руководящую должность. А главными в лагере «Аулкемп» ... 10 10 1
Торрент: Зарегистрирован [2020-08-24 16:53] · скачан: 28 раз
Статус: T временная
Размер: 1.62 GB
Как cкачать? Как скачать Каникулы Off-Line 2 через торрент | qTorrent

28-11-2019 20:33  

Отключить всю рекламу на сайте

    Дорогой пользователь! Огромная просьба, поблагодарите релизера, оцените раздачу и оставьте свои комментарий, если Вы скачали Каникулы Off-Line 2 через торрент бесплатно! Внесите свою лепту в развитие PiratBit!
    Комментировать посты могут только пользователи прошедшие не сложную регистрацию
    Показать сообщения:    

    Каникулы Off-Line 2 через торрент
    Скачать бесплатно Каникулы Off-Line 2
    Каникулы Off-Line 2 скачать торрент
    Каникулы Off-Line 2 смотреть онлайн
    Cкачать фильм Каникулы Off-Line 2 бесплатно
    Каникулы Off-Line 2 скачать торрент в хорошем качестве
    Каникулы Off-Line 2 смотреть онлайн бесплатно в хорошем качестве


    Вы не можете начинать темы
    Вы не можете отвечать на сообщения
    Вы не можете редактировать свои сообщения
    Вы не можете удалять свои сообщения
    Вы не можете голосовать в опросах
    Вы не можете прикреплять файлы к сообщениям
    Вы можете скачивать файлы