Ссылка на приватное зеркало нашего сайта всего за 1$. Внимание количество ограничено!!!

2 сезон

iTunes

1 сезон

1

iTunes

iTunes

iTunes

1 сезон

RePack

30

ИГРА 18+

pack

ВАЖНО

!!Акция!!

Alien_RageХит недели

RePack

MK11
pack

Забери бонус

RePack

jed

!!Акция!!

Alien_Rage

RePack

fifa19

RePack

Assassins Creed: Odyssey

RePack

NEED FOR SPEED™ PAYBACK

4 сезон

9 сезон

Бесстыжие 9 сезон

Все сериалы

все сериалы на PB.wtf

RePack

FAR CRY 5
  

Агентство О.К.О. / Сезон: 1 / Серии: 1-16 из 16 (Илья Куликов, Анна Мирохина) [2020, Детектив, мистика, криминал, WEBRip] pb.wtf

Агентство О.К.О. через торрент pb.wtf

Раздают: 2 [ 0 KB/s ]
Размер: 9.47 GB | Добавлен: 1 мес. 8 д. назад | Торрент скачан:29 раз
Скачать  

24-08-2020 18:03 Агентство О.К.О. Скачать торрент  

Агентство О.К.О.
Год выпуска: 2020
Страна: Россия
Выпущено: LEGIO FELIX по заказу телеканала ТВ3
Жанр: Детектив. мистика, криминал
Продолжительность: ~ 00:49:00
Субтитры: отсутствуют

Режиссер: Илья Куликов, Анна Мирохина



В ролях: Рина Гришина, Игорь Стам, Виктория Тарасова, Артём Ешкин, Даниэла Стоянович, Евгений Венедиктов, Александр Сергеев (IV), Маргарита Силаева, Марина Кондратьева

Описание: Что будет, если бунтарь-полицейский и медиум с реальными способностями однажды встретятся? Бывший опер с Петровки в паре с девушкой-экстрасенсом занимаются поисками пропавших без вести, расследованием убийств, смертей и прочих дел, где оказалась бессильна полиция...

Качество: WEBRip
Формат: AVI

Видео: XviD, ~ 1600 Кбит/с, 704x288
Аудио: AC3, 2 ch, 192 Кбит/с
скриншот  скриншот  скриншот  скриншот  

Общее
Полное имя : D:\Agentstvo.O.K.O.2020.WEB-DLRip.25Kuzmich\Agentstvo.O.K.O.e01.WEB-DLRip.25Kuzmich.avi
Формат : AVI
Формат/Информация : Audio Video Interleave
Размер файла : 600 Мбайт
Продолжительность : 48 м. 34 с.
Общий поток : 1728 Кбит/сек
Программа кодирования : VirtualDubMod 1.5.10.3 | www.virtualdub-fr.org || (build 2550/release)
Библиотека кодирования : VirtualDubMod build 2550/release

Видео
Идентификатор : 0
Формат : MPEG-4 Visual
Профиль формата : Advanced Simple@L5
Параметр BVOP формата : 1
Параметр QPel формата : Нет
Параметр GMC формата : Без точки перехода
Параметр матрицы формата : Default (MPEG)
Идентификатор кодека : XVID
Идентификатор кодека/Подсказка : XviD
Продолжительность : 48 м. 34 с.
Битрейт : 14558 Кбит/сек
Ширина : 704 пикселя
Высота : 288 пикселей
Соотношение сторон : 2,40:1
Частота кадров : 25,000 кадров/сек
Цветовое пространство : YUV
Субдискретизация насыщенности : 4:2:0
Битовая глубина : 8 бит
Тип развёртки : Прогрессивная
Метод сжатия : С потерями
Бит/(Пиксели*Кадры) : 0.288
Размер потока : 507 Мбайт (84%)
Библиотека кодирования : XviD 73

Аудио
Идентификатор : 1
Формат : AC-3
Формат/Информация : Audio Coding 3
Расширение режима : CM (complete main)
Параметр Endianness формата : Big
Идентификатор кодека : 2000
Продолжительность : 48 м. 34 с.
Вид битрейта : Постоянный
Битрейт : 192 Кбит/сек
Каналы : 2 канала
Расположение каналов : Front: L R
Частота : 48,0 КГц
Частота кадров : 31,250 кадров/сек (1536 spf)
Метод сжатия : С потерями
Размер потока : 66,7 Мбайт (11%)
Выравнивание : Разделение по промежуткам

Когда раздача ведётся путём добавления новых серий, при каждом добавлении создётся новый торрент. Чтобы начать докачку новой серии, пользователям необходимо сделать следующее:
(1) остановить скачивание,
(2) удалить старый торрент у себя из клиента (старые серии удалять не надо),
(3) скачать новый торрент и запустить его у себя в клиенте вместо старого, при этом указать клиенту путь в старую папку, куда и должно происходить скачивание новых серий.
Ваш клиент при этом должен произвести хеширование (проверку) старой папки (если не производит сам - помогите ему сделать это), и будет докачивать только те серии, которых у вас ещё нет. Старые серии при этом не удаляются, а продолжают раздаваться!
Eсли вы уже удалили старые серии, то предотвратить повторную закачку старых серий можно, отжав галочку в соответсвующих местах при запуске нового торрента. По возможности, желательно не удалять старые серии как можно дольше, чтобы релизёр не столько продолжал раздавать старые серии, а смог сконцентрироваться на новых.
pb.wtf



Скачать Агентство О.К.О. через торрент https://img11.lostpic.net/2020/08/24/07fc697c04fd545b35eef00410d8fb28.jpg Скачать фильм Агентство О.К.О. через торрент бесплантно в хорошем качестве Описание: Что будет, если бунтарь-полицейский и медиум с реальными способностями однажды встретятся? Бывший опер с Петровки в паре с ... 9.9 10 9
Торрент: Зарегистрирован [2020-09-18 02:46] · скачан: 29 раз
Статус: √ проверено
Размер: 9.47 GB
Как cкачать? Как скачать Агентство О.К.О. через торрент | qTorrent

% Раздел Тема Автор DL S | L
Наши сериалы [ 37.95 GB ] Агентство О.К.О. / Сезон: 1 / Серии: 1-16 из 16 [2020 HDTV 1080p] bober100 Скачать
2 | 1
Наши сериалы [ 16.39 GB ] Агентство О.К.О. / Сезон: 1 / Серии: 1-16 из 16 [2020 HDTVRip 720p] bober100 Скачать
2 | 0
Наши сериалы [ 9.04 GB ] Агентство О.К.О. / Сезон: 1 / Серии: 1-16 из 16 [2020 WEBRip-AVC] bober100 Скачать
3 | 0
Наши сериалы [ 15.95 GB ] Агентство О.К.О. / Сезон: 1 / Серии: 1-16 из 16 [2020 WEBRip 720p] bober100 Скачать
1 | 0
Наши сериалы [ 23.47 GB ] Агентство О.К.О. / Сезон: 1 / Серии: 1-16 из 16 [2020 WEBRip 1080p] bober100 Скачать
3 | 0
Наши сериалы [ 9.74 GB ] Агентство О.К.О. / Сезон: 1 / Серии: 1-16 из 16 [2020 SATRip] bober100 Скачать
3 | 0

28-11-2019 20:33  

Отключить всю рекламу на сайте

    Дорогой пользователь! Огромная просьба, поблагодарите релизера, оцените раздачу и оставьте свои комментарий, если Вы скачали Агентство О.К.О. через торрент бесплатно! Внесите свою лепту в развитие PiratBit!
    Комментировать посты могут только пользователи прошедшие не сложную регистрацию
    Показать сообщения:    

    Агентство О.К.О. через торрент
    Скачать бесплатно Агентство О.К.О.
    Агентство О.К.О. скачать торрент
    Агентство О.К.О. смотреть онлайн
    Cкачать фильм Агентство О.К.О. бесплатно
    Агентство О.К.О. скачать торрент в хорошем качестве
    Агентство О.К.О. смотреть онлайн бесплатно в хорошем качестве


    Вы не можете начинать темы
    Вы не можете отвечать на сообщения
    Вы не можете редактировать свои сообщения
    Вы не можете удалять свои сообщения
    Вы не можете голосовать в опросах
    Вы не можете прикреплять файлы к сообщениям
    Вы можете скачивать файлы