Ссылка на приватное зеркало нашего сайта всего за 1$. Внимание количество ограничено!!!

2 сезон

iTunes

1 сезон

1

iTunes

iTunes

iTunes

1 сезон

RePack

30

ИГРА 18+

pack

ВАЖНО

!!Акция!!

Alien_RageХит недели

RePack

MK11
pack

Забери бонус

RePack

jed

!!Акция!!

Alien_Rage

RePack

fifa19

RePack

Assassins Creed: Odyssey

RePack

NEED FOR SPEED™ PAYBACK

4 сезон

9 сезон

Бесстыжие 9 сезон

Все сериалы

все сериалы на PB.wtf

RePack

FAR CRY 5
  

Лихач / Сезон: 1 / Серии: 1-20 из 20 (Андрей Коршунов, Максим Демченко) [2020, Детектив, приключения, WEBRip] pb.wtf

Лихач через торрент pb.wtf

Раздают: 5 [ 405 KB/s ]
Размер: 12.46 GB | Добавлен: 1 мес. 16 д. назад | Торрент скачан:98 раз
Скачать  

25-08-2020 03:20 Лихач Скачать торрент  

Лихач
Год выпуска: 2020
Страна: Россия
Студия: Киностудия КИТ
Жанр: Детектив, приключения
Продолжительность: ~ 00:49:00
Перевод: Не требуется
Субтитры: отсутствуют

Режиссер: Андрей Коршунов, Максим Демченко



В ролях: Никита Панфилов, Артур Мкртчян, Мария Сандлер, Иван Васильев, Игорь Качаев, Денис Пьянов, Ольга Павлюкова, Игорь Головин, Ульяна Никулина, Александра Камчатова

Описание: 37-летний Сергей Сотников – заместитель начальника уголовного розыска Сочи, в котором родился и прожил всю жизнь. Всему городу Сотников знаком под прозвищем «Лихач», которое он получил за свой суровый нрав.Упрямый, справедливый, уверенный в себе Лихач смог за годы работы добиться главного – установить контроль над преступностью. Сотников давно бы мог возглавить уголовный розыск и даже стать начальником полиции, но кабинетные должности не для него. В курортном городе случаются и грабежи, и разбойные нападения, и драки, а иногда даже убийства. Но Лихач ни одно преступление не оставит безнаказанным. Сочи может спать спокойно – у этого города есть свой герой.

Качество: WEBRip
Формат: AVI

Видео: XviD, ~ 1600 Кбит/с, 720x400
Аудио: AC3, 2 ch, 192 Кбит/с
скриншот  скриншот  скриншот  скриншот  

General
General
Complete name : F:\Лихач.(2020).WEBRip.Files-x\01.Лихач.(2020).WEBRip.Files-x.avi
Format : AVI
Format/Info : Audio Video Interleave
File size : 639 MiB
Duration : 49 min 35 s
Overall bit rate : 1 802 kb/s
Writing application : VirtualDubMod 1.5.10.3 | www.virtualdub-fr.org || (build 2550/release)
Writing library : VirtualDubMod build 2550/release

Video
ID : 0
Format : MPEG-4 Visual
Format profile : Advanced Simple@L5
Format settings : BVOP1 / Custom Matrix
Format settings, BVOP : 1
Format settings, QPel : No
Format settings, GMC : No warppoints
Format settings, Matrix : Custom
Codec ID : XVID
Codec ID/Hint : XviD
Duration : 49 min 35 s
Bit rate : 1 600 kb/s
Width : 720 pixels
Height : 400 pixels
Display aspect ratio : 16:9
Frame rate : 25.000 FPS
Color space : YUV
Chroma subsampling : 4:2:0
Bit depth : 8 bits
Scan type : Progressive
Compression mode : Lossy
Bits/(Pixel*Frame) : 0.222
Stream size : 568 MiB (89%)
Writing library : XviD 73

Audio
ID : 1
Format : AC-3
Format/Info : Audio Coding 3
Format settings, Endianness : Big
Codec ID : 2000
Duration : 49 min 35 s
Bit rate mode : Constant
Bit rate : 192 kb/s
Channel(s) : 2 channels
Channel positions : Front: L R
Sampling rate : 48.0 kHz
Frame rate : 31.250 FPS (1536 SPF)
Bit depth : 16 bits
Compression mode : Lossy
Stream size : 68.1 MiB (11%)
Alignment : Split accross interleaves
Interleave, duration : 40 ms (1.00 video frame)
Interleave, preload duration : 500 ms
Service kind : Complete Main

Когда раздача ведётся путём добавления новых серий, при каждом добавлении создётся новый торрент. Чтобы начать докачку новой серии, пользователям необходимо сделать следующее:
(1) остановить скачивание,
(2) удалить старый торрент у себя из клиента (старые серии удалять не надо),
(3) скачать новый торрент и запустить его у себя в клиенте вместо старого, при этом указать клиенту путь в старую папку, куда и должно происходить скачивание новых серий.
Ваш клиент при этом должен произвести хеширование (проверку) старой папки (если не производит сам - помогите ему сделать это), и будет докачивать только те серии, которых у вас ещё нет. Старые серии при этом не удаляются, а продолжают раздаваться!
Eсли вы уже удалили старые серии, то предотвратить повторную закачку старых серий можно, отжав галочку в соответсвующих местах при запуске нового торрента. По возможности, желательно не удалять старые серии как можно дольше, чтобы релизёр не столько продолжал раздавать старые серии, а смог сконцентрироваться на новых.
pb.wtf



Скачать Лихач через торрент https://i112.fastpic.ru/big/2020/0824/1d/2b5c34da7a9ea958fd3e41183101a41d.jpg Скачать фильм Лихач через торрент бесплантно в хорошем качестве Описание: 37-летний Сергей Сотников – заместитель начальника уголовного розыска Сочи, в котором родился и прожил всю жизнь. Всему городу ... 10 10 14
Торрент: Зарегистрирован [2020-09-05 07:20] · скачан: 98 раз
Статус: √ проверено
Размер: 12.46 GB
Как cкачать? Как скачать Лихач через торрент | qTorrent

% Раздел Тема Автор DL S | L
Наши сериалы [ 25.5 GB ] Лихач / Сезон: 1 / Серии: 1-20 из 20 [2020 WEBRip 720p] bober100 Скачать
3 | 0
Наши сериалы [ 42.73 GB ] Лихач / Сезон: 1 / Серии: 1-20 из 20 [2020 WEBRip 1080p] bober100 Скачать
1 | 0
Наши сериалы [ 15.17 GB ] Лихач / Сезон: 1 / Серии: 1-20 из 20 [2020 WEBRip-AVC] bober100 Скачать
2 | 0
Наши сериалы [ 12.65 GB ] Лихач / Сезон: 1 / Серии: 1-20 из 20 [2020 SATRip] Russian Mafia Скачать
4 | 1

28-11-2019 20:33  

Отключить всю рекламу на сайте

    Дорогой пользователь! Огромная просьба, поблагодарите релизера, оцените раздачу и оставьте свои комментарий, если Вы скачали Лихач через торрент бесплатно! Внесите свою лепту в развитие PiratBit!
    Комментировать посты могут только пользователи прошедшие не сложную регистрацию
    Показать сообщения:    

    Лихач через торрент
    Скачать бесплатно Лихач
    Лихач скачать торрент
    Лихач смотреть онлайн
    Cкачать фильм Лихач бесплатно
    Лихач скачать торрент в хорошем качестве
    Лихач смотреть онлайн бесплатно в хорошем качестве


    Вы не можете начинать темы
    Вы не можете отвечать на сообщения
    Вы не можете редактировать свои сообщения
    Вы не можете удалять свои сообщения
    Вы не можете голосовать в опросах
    Вы не можете прикреплять файлы к сообщениям
    Вы можете скачивать файлы