Ссылка на приватное зеркало нашего сайта всего за 1$. Внимание количество ограничено!!!

2 сезон

iTunes

1 сезон

1

iTunes

iTunes

iTunes

1 сезон

RePack

30

ИГРА 18+

pack

ВАЖНО

!!Акция!!

Alien_RageХит недели

RePack

MK11
pack

Забери бонус

RePack

jed

!!Акция!!

Alien_Rage

RePack

fifa19

RePack

Assassins Creed: Odyssey

RePack

NEED FOR SPEED™ PAYBACK

4 сезон

9 сезон

Бесстыжие 9 сезон

Все сериалы

все сериалы на PB.wtf

RePack

FAR CRY 5
  

Скупой / L'avare (Луи де Фюнес, Жан Жиро) [1980, комедия, экранизация, HDTVRip 1080p] [DUB+MVO] pb.wtf

Скупой через торрент pb.wtf

Размер: 8.05 GB | Добавлен: 2 мес. 3 д. назад | Торрент скачан:24 раза
Скачать  

25-08-2020 08:06 Скупой Скачать торрент  

Скупой / L'Avare

Год выхода: 1980
Страна: Франция
Жанр: Комедия, экранизация
Продолжительность: 01:56:55
Перевод:Профессиональный (полное дублирование), Профессиональный (многоголосый закадровый)
Субтитры: Отсутствуют

Режиссер: Луи де Фюнес, Жан Жиро

В ролях: Луи де Фюнес, Франк Сабот, Эрве Беллон, Жорж Одубер, Ги Гроссо, Мишель Модо, Анри Жене, Макс Монтавон, Мишлин Бурдэ, Мадлен Барбюле

Описание:
Экранизация пьесы Мольера «Скупой, или Школа лжи».
Гарпагон — человек достаточно богатый, но отличающийся болезненной скупостью. Свой капитал в виде сундука золотых монет он зарыл в своем саду и строго следит за тем, чтобы его сокровище не было обнаружено кем-то из домочадцев. От его скупости страдают не только его слуги, которые вынуждены носить лохмотья и работать за двоих, но также его дети. Свою дочь Элизу он намеревается выдать замуж за богатого старика Ансельма только из-за того, что тот готов отказаться от приданного. Для сына Клеанта он подыскал в жены немолодую вдову.
Между тем сердца молодых людей уже принадлежат другим: Элиза любит Валера, потомка знатного рода, который некогда спас ей жизнь и, полюбив ее, нанялся управляющим к ее отцу, скрыв свое происхождение; Клеант же влюблен в юную Мариану, небогатую девушку, живущую вдвоем с матерью. Не надеясь на понимание отца, дети Гарпагона решают устроить свою судьбу сами, без его согласия.



Качество видео: HDTVRip (1080p)
Формат: MKV
Видео: AVC/H.264, 1920x1080, ~9218 Kbps, 25.000 fps
Аудио #1: AC3, 2 ch, 256 Kbps, 48,0 КГц - Русский (Дублированный)
Аудио #2: AC3, 2 ch, 256 Kbps, 48,0 КГц - Русский (MVO - НТВ)
Аудио #3: AC3, 2 ch, 128 Kbps, 48,0 КГц - Французский (Оригинал)
Общее
Уникальный идентификатор : 237305784107524621110226919460783602369 (0xB2876E7AA4D6C1838CD89E3397B93AC1)
Полное имя : D:\Скупой\Lavare.1980.HDTVRip.1080p.mkv
Формат : Matroska
Версия формата : Version 4
Размер файла : 8,05 Гбайт
Продолжительность : 1 ч. 56 м.
Общий поток : 9861 Кбит/сек
Программа кодирования : mkvmerge v7.2.0 ('On Every Street') 64bit built on Sep 13 2014 15:52:10
Библиотека кодирования : libebml v1.3.0 + libmatroska v1.4.1

Видео
Идентификатор : 1
Формат : AVC
Формат/Информация : Advanced Video Codec
Профиль формата : High@L4.1
Настройки формата : CABAC / 4 Ref Frames
Параметр CABAC формата : Да
Параметр RefFrames формата : 4 кадра
Идентификатор кодека : V_MPEG4/ISO/AVC
Продолжительность : 1 ч. 56 м.
Битрейт : 9218 Кбит/сек
Ширина : 1800 пикселей
Высота : 1080 пикселей
Соотношение сторон : 5:3
Режим частоты кадров : Постоянный
Частота кадров : 25,000 кадров/сек
Цветовое пространство : YUV
Субдискретизация насыщенности : 4:2:0
Битовая глубина : 8 бит
Тип развёртки : Прогрессивная
Бит/(Пиксели*Кадры) : 0.190
Размер потока : 7,53 Гбайт (93%)
Библиотека кодирования : x264 core 157 r2935 545de2f
Настройки программы : opencl=1 / cabac=1 / ref=4 / deblock=1:-2:-2 / analyse=0x3:0x133 / me=umh / subme=8 / psy=1 / psy_rd=1.00:0.00 / mixed_ref=1 / me_range=24 / chroma_me=1 / trellis=2 / 8x8dct=1 / cqm=0 / deadzone=21,11 / fast_pskip=0 / chroma_qp_offset=-2 / threads=24 / lookahead_threads=4 / sliced_threads=0 / nr=150 / decimate=1 / interlaced=0 / bluray_compat=0 / constrained_intra=0 / bframes=3 / b_pyramid=2 / b_adapt=2 / b_bias=0 / direct=3 / weightb=1 / open_gop=0 / weightp=2 / keyint=250 / keyint_min=25 / scenecut=40 / intra_refresh=0 / rc_lookahead=60 / rc=crf / mbtree=1 / crf=17.0 / qcomp=0.60 / qpmin=0 / qpmax=69 / qpstep=4 / ip_ratio=1.40 / aq=1:1.00
Default : Нет
Forced : Нет
Цветовой диапазон : Limited
Коэффициенты матрицы : BT.709

Аудио #1
Идентификатор : 2
Формат : AC-3
Формат/Информация : Audio Coding 3
Коммерческое название : Dolby Digital
Идентификатор кодека : A_AC3
Продолжительность : 1 ч. 56 м.
Вид битрейта : Постоянный
Битрейт : 256 Кбит/сек
Каналы : 2 канала
ChannelLayout : L R
Частота : 48,0 КГц
Частота кадров : 31,250 кадров/сек (1536 SPF)
Метод сжатия : С потерями
Размер потока : 214 Мбайт (3%)
Заголовок : Дубляж
Язык : Russian
ServiceKind/String : Complete Main
Default : Да
Forced : Нет

Аудио #2
Идентификатор : 3
Формат : AC-3
Формат/Информация : Audio Coding 3
Коммерческое название : Dolby Digital
Идентификатор кодека : A_AC3
Продолжительность : 1 ч. 56 м.
Вид битрейта : Постоянный
Битрейт : 256 Кбит/сек
Каналы : 2 канала
ChannelLayout : L R
Частота : 48,0 КГц
Частота кадров : 31,250 кадров/сек (1536 SPF)
Метод сжатия : С потерями
Размер потока : 214 Мбайт (3%)
Заголовок : НТВ
Язык : Russian
ServiceKind/String : Complete Main
Default : Нет
Forced : Нет

Аудио #3
Идентификатор : 4
Формат : AC-3
Формат/Информация : Audio Coding 3
Коммерческое название : Dolby Digital
Идентификатор кодека : A_AC3
Продолжительность : 1 ч. 56 м.
Вид битрейта : Постоянный
Битрейт : 128 Кбит/сек
Каналы : 2 канала
ChannelLayout : L R
Частота : 48,0 КГц
Частота кадров : 31,250 кадров/сек (1536 SPF)
Метод сжатия : С потерями
Размер потока : 107 Мбайт (1%)
Заголовок : Оригинал
Язык : French
ServiceKind/String : Complete Main
Default : Нет
Forced : Нет
скриншот  скриншот  скриншот  
pb.wtf



Скачать Скупой через торрент http://i3.fastpic.ru/big/2009/1023/f1/594d9292c5e942b226ede881245a7ff1.jpg?r=1 Скачать фильм Скупой через торрент бесплантно в хорошем качестве Описание:Экранизация пьесы Мольера «Скупой, или Школа лжи».Гарпагон — человек достаточно богатый, но отличающийся болезненной скупостью. ... 9 10 3
Торрент: Зарегистрирован [2020-08-25 08:06] · скачан: 24 раз
Статус: √ проверено
Размер: 8.05 GB
Как cкачать? Как скачать Скупой через торрент | qTorrent

28-11-2019 20:33  

Отключить всю рекламу на сайте

27-08-2020 16:51 Скупой Скачать торрент  

Топик был перенесен из форума Фильмы [HD 720p, 1080p] (Хороший звук DUB, MVO) в форум Классика зарубежного кино


bober100pb.wtf



    Дорогой пользователь! Огромная просьба, поблагодарите релизера, оцените раздачу и оставьте свои комментарий, если Вы скачали Скупой через торрент бесплатно! Внесите свою лепту в развитие PiratBit!
    Комментировать посты могут только пользователи прошедшие не сложную регистрацию
    Показать сообщения:    

    Скупой через торрент
    Скачать бесплатно Скупой
    Скупой скачать торрент
    Скупой смотреть онлайн
    Cкачать фильм Скупой бесплатно
    Скупой скачать торрент в хорошем качестве
    Скупой смотреть онлайн бесплатно в хорошем качестве


    Вы не можете начинать темы
    Вы не можете отвечать на сообщения
    Вы не можете редактировать свои сообщения
    Вы не можете удалять свои сообщения
    Вы не можете голосовать в опросах
    Вы не можете прикреплять файлы к сообщениям
    Вы можете скачивать файлы