2 сезон

iTunes

MVO

1

2 сезон

iTunes

iTunes

1 сезон

RePack

30

Новинка

ВАЖНО

ИГРА 18+

pack

RePack

MK11
pack

Легкие деньги

RePack

jed

RePack

fifa19

RePack

RDR2

RePack

NEED FOR SPEED™ PAYBACK

4 сезон

9 сезон

Бесстыжие 9 сезон

Все сериалы

все сериалы на PB.wtf

RePack

FAR CRY 5

Anonymous, доброй ночи, мы не успеваем собрать деньги на оплату серверов за декабрь и январь, помогите нам пожалуйста в это трудное время. В качестве благодарности мы отключим Вам всю рекламу на сайте (укажите свой ник в строку Ваше имя)!

×
  
Magnet ссылка

Закон о детях / Удивительная миссис Мэй / The Children Act (Ричард Эйр) [2017, Драма, BDRip-AVC] 2xMVO [iTunes, HDRezka Studio] pb.wtf

Закон о детях через торрент pb.wtf

Размер: 2.84 GB | Добавлен: 5 мес. назад | Торрент скачан:23 раза
Скачать  

25-08-2020 17:59 Закон о детях Скачать торрент  

Закон о детях | Удивительная миссис Мэй | The Children Act
«We all make choices. Hers make history»

Год выпуска: 2017
Страна: Великобритания
Студия: Toledo Productions, BBC Films, FilmNation Entertainment
Жанр: Драма
Продолжительность: 01:45:38
Перевод:
• Профессиональный (многоголосый) | iTunes
• Профессиональный (многоголосый закадровый) | HDRezka Studio
Субтитры: Русские (Full (Focs)), английские (Full)

Режиссер: Ричард Эйр

rating

В ролях: Эмма Томпсон, Стэнли Туччи, Финн Уайтхед, Бен Чаплин, Рози Кавальеро, Джейсон Уоткинс, Никки Амука-Бёрд, Энтони Калф, Анджела Холмс, Руперт Ванситтарт

Описание: Судья Фиона Мэй, специализирующаяся на семейных делах, сталкивается с непростой дилеммой: Адам, которого от совершеннолетия отделяют всего три месяца жизни, по религиозным соображениям отказывается от переливания крови. Сможет ли Фиона заставить молодого человека жить против его воли..?

Качество: BDRip-AVC
Формат: MKV

Видео: 1024x552 (1, 85:1), 23, 976 fps, MPEG-4 AVC ~ 2837 Кbps avg, 0.209 bit/pixel
Аудио: AC3, 48 kHz, 6 ch, ~384.00 kbps avg | русский | iTunes
Аудио: AC3, 48 kHz, 2 ch, ~192.00 kbps avg | русский | HDRezka Studio
Аудио: AC3, 48 kHz, 6 ch, ~448.00 kbps avg | английский | Оригинал
скриншот  скриншот  скриншот  скриншот  скриншот  

Общее
Уникальный идентификатор: 212438953674886503749803683090412603763 (0x9FD24114CD84E34734484516ADFC0973)
Полное имя: The.Children.Act.2017.iT.BDRip.2.84Gb.x264.mkv
Формат: Matroska
Версия формата: Version 4
Размер файла: 2, 84 Гбайт
Продолжительность: 1 ч. 45 м.
Общий поток: 3 850 Кбит/сек
Название фильма: Закон о детях / Удивительная миссис Мэй / The Children Act (2017)
Дата кодирования: UTC 2020-08-25 12:41:04
Программа кодирования: mkvmerge v47.0.0 ('Black Flag') 64-bit
Библиотека кодирования: libebml v1.3.10 + libmatroska v1.5.2
Обложка: Yes
Attachments: cover.jpg

Видео
Идентификатор: 1
Формат: AVC
Формат/Информация: Advanced Video Codec
Профиль формата: High@L4.1
Настройки формата: CABAC / 10 Ref Frames
Параметр CABAC формата: Да
Параметр RefFrames формата: 10 кадров
Идентификатор кодека: V_MPEG4/ISO/AVC
Продолжительность: 1 ч. 45 м.
Битрейт: 2 837 Кбит/сек
Ширина: 1 024 пикселя
Высота: 552 пикселя
Соотношение сторон: 1, 85:1
Режим частоты кадров: Постоянный
Частота кадров: 23, 976 (24000/1001) кадра/сек
Цветовое пространство: YUV
Субдискретизация насыщенности: 4:2:0
Битовая глубина: 8 бит
Тип развёртки: Прогрессивная
Бит/(Пиксели*Кадры): 0.209
Размер потока: 2, 08 Гбайт (73%)
Заголовок: #stillet
Библиотека кодирования: x264 core 152 r2851bm ba24899
Настройки программы: cabac=1 / ref=10 / deblock=1:-2:-2 / analyse=0x3:0x113 / me=umh / subme=11 / psy=1 / psy_rd=1.00:0.15 / mixed_ref=1 / me_range=32 / chroma_me=1 / trellis=2 / 8x8dct=1 / cqm=0 / deadzone=21, 11 / fast_pskip=0 / chroma_qp_offset=-3 / threads=8 / lookahead_threads=3 / sliced_threads=0 / nr=0 / decimate=0 / interlaced=0 / bluray_compat=0 / constrained_intra=0 / bframes=11 / b_pyramid=2 / b_adapt=2 / b_bias=0 / direct=3 / weightb=1 / open_gop=0 / weightp=2 / keyint=240 / keyint_min=23 / scenecut=40 / intra_refresh=0 / rc=2pass / mbtree=0 / bitrate=2837 / ratetol=1.0 / qcomp=0.60 / qpmin=0 / qpmax=69 / qpstep=4 / cplxblur=20.0 / qblur=0.5 / ip_ratio=1.40 / pb_ratio=1.30 / aq=1:1.00
Язык: English
Default: Да
Forced: Нет

Аудио #1
Идентификатор: 2
Формат: AC-3
Формат/Информация: Audio Coding 3
Коммерческое название: Dolby Digital
Идентификатор кодека: A_AC3
Продолжительность: 1 ч. 45 м.
Вид битрейта: Постоянный
Битрейт: 384 Кбит/сек
Каналы: 6 каналов
Channel layout: L R C LFE Ls Rs
Частота: 48, 0 КГц
Частота кадров: 31, 250 кадров/сек (1536 SPF)
Метод сжатия: С потерями
Размер потока: 289 Мбайт (10%)
Заголовок: MVO | iTunes
Язык: Russian
Service kind: Complete Main
Default: Да
Forced: Нет

Аудио #2
Идентификатор: 3
Формат: AC-3
Формат/Информация: Audio Coding 3
Коммерческое название: Dolby Digital
Идентификатор кодека: A_AC3
Продолжительность: 1 ч. 45 м.
Вид битрейта: Постоянный
Битрейт: 192 Кбит/сек
Каналы: 2 канала
Channel layout: L R
Частота: 48, 0 КГц
Частота кадров: 31, 250 кадров/сек (1536 SPF)
Метод сжатия: С потерями
Размер потока: 145 Мбайт (5%)
Заголовок: MVO | HDRezka Studio
Язык: Russian
Service kind: Complete Main
Default: Нет
Forced: Нет

Аудио #3
Идентификатор: 4
Формат: AC-3
Формат/Информация: Audio Coding 3
Коммерческое название: Dolby Digital
Идентификатор кодека: A_AC3
Продолжительность: 1 ч. 45 м.
Вид битрейта: Постоянный
Битрейт: 448 Кбит/сек
Каналы: 6 каналов
Channel layout: L R C LFE Ls Rs
Частота: 48, 0 КГц
Частота кадров: 31, 250 кадров/сек (1536 SPF)
Метод сжатия: С потерями
Размер потока: 339 Мбайт (12%)
Язык: English
Service kind: Complete Main
Default: Нет
Forced: Нет

Текст #1
Идентификатор: 5
Формат: UTF-8
Идентификатор кодека: S_TEXT/UTF8
Идентификатор кодека/Информация: UTF-8 Plain Text
Продолжительность: 1 ч. 38 м.
Битрейт: 105 бит/сек
Count of elements: 1237
Размер потока: 76, 7 Кбайт (0%)
Заголовок: Focs
Язык: Russian
Default: Нет
Forced: Нет

Текст #2
Идентификатор: 6
Формат: UTF-8
Идентификатор кодека: S_TEXT/UTF8
Идентификатор кодека/Информация: UTF-8 Plain Text
Продолжительность: 1 ч. 36 м.
Битрейт: 60 бит/сек
Count of elements: 1239
Размер потока: 42, 7 Кбайт (0%)
Заголовок: Full
Язык: English
Default: Нет
Forced: Нет

Меню
00:00:00.000: en:Chapter 1
00:06:36.313: en:Chapter 2
00:15:54.078: en:Chapter 3
00:23:00.296: en:Chapter 4
00:31:30.180: en:Chapter 5
00:38:11.498: en:Chapter 6
00:50:23.729: en:Chapter 7
00:58:40.726: en:Chapter 8
01:08:58.468: en:Chapter 9
01:19:23.300: en:Chapter 10
01:26:37.025: en:Chapter 11
01:37:40.688: en:Chapter 12

pb.wtf



Скачать Закон о детях через торрент https://i112.fastpic.ru/big/2020/0825/dd/592dce0eb42990f62e0e8034014a42dd.jpg Скачать фильм Закон о детях через торрент бесплантно в хорошем качестве Описание: Судья Фиона Мэй, специализирующаяся на семейных делах, сталкивается с непростой дилеммой: Адам, которого от совершеннолетия ... 10 10 2
Торрент: Зарегистрирован [2020-08-25 17:59] · скачан: 23 раз
Статус: √ проверено
Размер: 2.84 GB
Как cкачать? Как скачать Закон о детях через торрент | UTorrent

% Раздел Тема Автор DL S | L
Фильмы 2017 [DVDrip, WEB-DLRip, HDrip] (DUB, MVO) [ 1.41 GB ] Закон о детях / Удивительная миссис Мэй / The Children Act [2017 BDRip-AVC] MVO bober100 Скачать
1 | 0
Фильмы 2017 [DVDrip, WEB-DLRip, HDrip] (DUB, MVO) [ 1.46 GB ] Закон о детях / Удивительная миссис Мэй / The Children Act [2017 BDRip] MVO bober100 Скачать
1 | 0

28-11-2019 20:33  

Отключить всю рекламу на сайте

    Дорогой пользователь! Огромная просьба, поблагодарите релизера, оцените раздачу и оставьте свои комментарий, если Вы скачали Закон о детях через торрент бесплатно! Внесите свою лепту в развитие PiratBit!
    Комментировать посты могут только пользователи прошедшие не сложную регистрацию
    Показать сообщения:    

    Закон о детях через торрент
    Скачать бесплатно Закон о детях
    Закон о детях скачать торрент
    Закон о детях смотреть онлайн
    Cкачать фильм Закон о детях бесплатно
    Закон о детях скачать торрент в хорошем качестве
    Закон о детях смотреть онлайн бесплатно в хорошем качестве


    Вы не можете начинать темы
    Вы не можете отвечать на сообщения
    Вы не можете редактировать свои сообщения
    Вы не можете удалять свои сообщения
    Вы не можете голосовать в опросах
    Вы не можете прикреплять файлы к сообщениям
    Вы можете скачивать файлы