2 сезон

iTunes

MVO

1

2 сезон

iTunes

iTunes

1 сезон

RePack

30

Ultimate

ВАЖНО

ИГРА 18+

pack

RePack

MK11
pack

Легкие деньги

RePack

jed

RePack

fifa19

RePack

RDR2

RePack

NEED FOR SPEED™ PAYBACK

4 сезон

9 сезон

Бесстыжие 9 сезон

Все сериалы

все сериалы на PB.wtf

RePack

FAR CRY 5

Anonymous, доброе утро, мы не успеваем собрать деньги на оплату серверов за декабрь и январь, помогите нам пожалуйста в это трудное время. В качестве благодарности мы отключим Вам всю рекламу на сайте (укажите свой ник в строку Ваше имя)!

×
  
Magnet ссылка

Одна ночь в Бангкоке / One Night in Bangkok (Вич Каосаянанда) [2020, Боевик, триллер, WEB-DLRip-AVC] [MVO] [MUZOBOZ] от wolf1245 & MediaBit pb.wtf

Одна ночь в Бангкоке через торрент pb.wtf

Размер: 752 MB | Добавлен: 4 мес. 22 д. назад | Торрент скачан:205 раз
Скачать  

25-08-2020 18:59 Одна ночь в Бангкоке Скачать торрент  


Одна ночь в Бангкоке / One Night in Bangkok
Информация о фильме:
Название: Одна ночь в Бангкоке
Оригинальное название: One Night in Bangkok
Год выхода: 2020
Жанр: Боевик, триллер
Режиссер: Вич Каосаянанда

В ролях: Марк Дакаскос, Ванида Голтен, Принья Интачай, Майкл С. Нью, Кейн Косуги, Сахайак Бунтханакит, Джули Кондра, Шивам Пава, Сирипон Юктадатта, Чарли Рюдпоканон

Описание: Кай Кахале приезжает в Бангкок, чтобы решить неотложные дела. Он хочет как можно быстрее со всем разобраться и покинуть неприятный ему город. Но в одиночку провернуть сложное дело будет крайне непросто, поэтому он обращается с выгодным предложением к симпатичной девушке. Она работает таксистом и остро нуждается в деньгах. Кай предлагает ей стать на целую ночь его персональным водителем. От нее требуется хранить молчание и хладнокровие. Все дело в том, что герой собирается наказать бандитов, которые испортили жизнь семье его дочери. В обмен на услугу он предлагает девушке крупную сумму денег.

rating

Страна: США
Студия: Grindstone Entertainment Group
Продолжительность: 01:44:57
Перевод: Любительский (многоголосый, закадровый) - @MUZOBOZ@



Информация о файле:
Кодек: AVC
Формат: MKV
Качество: WEB-DLRip-AVC
Видео: MPEG-4 AVC, 742x308 (2,40:1), 905 kbps, 23.976 fps, 0.165
Аудио RU: AAC-HE, 2 ch, 48 kHz, 96 kbps
Субтитры: Английские
Навигация по главам: Есть

|
Общее
Уникальный идентификатор : 311732869443524442329495242791849868077 (0xEA85911938C78D3678A3D234C18CBB2D)
Полное имя : D:uTorrentРипы_от_wolf1245_MediaBitОдна ночь в Бангкоке - One Night in Bangkok (2020)_wolf1245_MediaBit.mkv
Формат : Matroska
Версия формата : Version 4
Размер файла : 752 Мбайт
Продолжительность : 1 ч. 44 м.
Общий поток : 1 002 Кбит/сек
Название фильма : Одна ночь в Бангкоке / One Night in Bangkok (2020)_wolf1245_MediaBit
Дата кодирования : UTC 2020-08-25 18:41:20
Программа кодирования : mkvmerge v49.0.0 ('Sick Of Losing Soulmates') 64-bit
Библиотека кодирования : libebml v1.4.0 + libmatroska v1.6.1
Обложка : Yes
Attachments : Cover.jpg

Видео
Идентификатор : 1
Формат : AVC
Формат/Информация : Advanced Video Codec
Профиль формата : High@L4.1
Настройки формата : CABAC / 12 Ref Frames
Параметр CABAC формата : Да
Параметр RefFrames формата : 12 кадров
Идентификатор кодека : V_MPEG4/ISO/AVC
Продолжительность : 1 ч. 44 м.
Битрейт : 905 Кбит/сек
Ширина : 742 пикселя
Высота : 308 пикселей
Соотношение сторон : 2,40:1
Режим частоты кадров : Постоянный
Частота кадров : 23,976 (24000/1001) кадра/сек
Цветовое пространство : YUV
Субдискретизация насыщенности : 4:2:0
Битовая глубина : 8 бит
Тип развёртки : Прогрессивная
Бит/(Пиксели*Кадры) : 0.165
Размер потока : 678 Мбайт (90%)
Заголовок : wolf1245_MediaBit
Библиотека кодирования : x264 core 157 r2958 57baac4
Настройки программы : cabac=1 / ref=12 / deblock=1:-3:-3 / analyse=0x3:0x133 / me=umh / subme=11 / psy=1 / psy_rd=1.00:0.15 / mixed_ref=1 / me_range=48 / chroma_me=1 / trellis=2 / 8x8dct=1 / cqm=0 / deadzone=21,11 / fast_pskip=0 / chroma_qp_offset=-3 / threads=10 / lookahead_threads=2 / sliced_threads=0 / nr=0 / decimate=0 / interlaced=0 / bluray_compat=0 / constrained_intra=0 / bframes=12 / b_pyramid=2 / b_adapt=2 / b_bias=12 / direct=3 / weightb=1 / open_gop=0 / weightp=2 / keyint=240 / keyint_min=24 / scenecut=40 / intra_refresh=0 / rc_lookahead=60 / rc=2pass / mbtree=0 / bitrate=905 / ratetol=1.0 / qcomp=0.60 / qpmin=0 / qpmax=69 / qpstep=4 / cplxblur=20.0 / qblur=0.5 / vbv_maxrate=50000 / vbv_bufsize=62500 / nal_hrd=none / filler=0 / ip_ratio=1.40 / pb_ratio=1.30 / aq=1:1.00
Язык : English
Default : Да
Forced : Нет
Цветовой диапазон : Limited
Основные цвета : BT.709
Характеристики трансфера : BT.709
Коэффициенты матрицы : BT.709

Аудио
Идентификатор : 2
Формат : AAC LC SBR
Формат/Информация : Advanced Audio Codec Low Complexity with Spectral Band Replication
Коммерческое название : HE-AAC
Настройки формата : Implicit
Идентификатор кодека : A_AAC-2
Продолжительность : 1 ч. 44 м.
Битрейт : 96,0 Кбит/сек
Каналы : 2 канала
Channel layout : L R
Частота : 48,0 КГц
Частота кадров : 23,438 кадра/сек (2048 SPF)
Метод сжатия : С потерями
Размер потока : 72,1 Мбайт (10%)
Заголовок : MVO [@MUZOBOZ@] MediaBit
Язык : Russian
Default : Да
Forced : Нет

Текст #1
Идентификатор : 3
Формат : UTF-8
Идентификатор кодека : S_TEXT/UTF8
Идентификатор кодека/Информация : UTF-8 Plain Text
Продолжительность : 56 м. 57 с.
Битрейт : 0 бит/сек
Count of elements : 10
Размер потока : 228 байт (0%)
Заголовок : Forsed
Язык : English
Default : Нет
Forced : Нет

Текст #2
Идентификатор : 4
Формат : UTF-8
Идентификатор кодека : S_TEXT/UTF8
Идентификатор кодека/Информация : UTF-8 Plain Text
Продолжительность : 1 ч. 43 м.
Битрейт : 33 бит/сек
Count of elements : 926
Размер потока : 25,0 Кбайт (0%)
Язык : English
Default : Нет
Forced : Нет

Меню
00:00:00.000 : :1
00:07:39.000 : :2
00:17:50.000 : :3
00:28:22.000 : :4
00:39:48.000 : :5
00:46:50.000 : :6
00:54:31.000 : :7
01:04:47.000 : :8
01:11:57.000 : :9
01:25:45.000 : :10
01:33:00.000 : :11
01:43:09.000 : :12
01:44:47.948 : :1
Релиз от: &
pb.wtf



Скачать Одна ночь в Бангкоке через торрент https://a.radikal.ru/a19/2008/8a/39e66ecfd6a2.jpg Скачать фильм Одна ночь в Бангкоке через торрент бесплантно в хорошем качестве Описание: Кай Кахале приезжает в Бангкок, чтобы решить неотложные дела. Он хочет как можно быстрее со всем разобраться и покинуть ... 9.3 10 18
Торрент: Зарегистрирован [2020-08-25 18:59] · скачан: 205 раз
Статус: T временная
Размер: 752 MB
Как cкачать? Как скачать Одна ночь в Бангкоке через торрент | UTorrent

28-11-2019 20:33  

Отключить всю рекламу на сайте

26-08-2020 14:08 Одна ночь в Бангкоке Скачать торрент  

Из за фамилии режиссера смотреть не буду)pb.wtf



26-08-2020 16:01 Одна ночь в Бангкоке Скачать торрент  

VIC не ковид19 же, давай посмотримpb.wtf



26-08-2020 16:02 Одна ночь в Бангкоке Скачать торрент  

завтра отпишусь что за шедевр со старым Дакаскасомpb.wtf



04-10-2020 16:15 Одна ночь в Бангкоке Скачать торрент  

вовчик13 писал(а):

завтра отпишусь что за шедевр со старым Дакаскасом

Ты почему не отписался ??pb.wtf



    Дорогой пользователь! Огромная просьба, поблагодарите релизера, оцените раздачу и оставьте свои комментарий, если Вы скачали Одна ночь в Бангкоке через торрент бесплатно! Внесите свою лепту в развитие PiratBit!
    Комментировать посты могут только пользователи прошедшие не сложную регистрацию
    Показать сообщения:    

    Одна ночь в Бангкоке через торрент
    Скачать бесплатно Одна ночь в Бангкоке
    Одна ночь в Бангкоке скачать торрент
    Одна ночь в Бангкоке смотреть онлайн
    Cкачать фильм Одна ночь в Бангкоке бесплатно
    Одна ночь в Бангкоке скачать торрент в хорошем качестве
    Одна ночь в Бангкоке смотреть онлайн бесплатно в хорошем качестве


    Вы не можете начинать темы
    Вы не можете отвечать на сообщения
    Вы не можете редактировать свои сообщения
    Вы не можете удалять свои сообщения
    Вы не можете голосовать в опросах
    Вы не можете прикреплять файлы к сообщениям
    Вы можете скачивать файлы