Ссылка на приватное зеркало нашего сайта всего за 1$. Внимание количество ограничено!!!

2 сезон

iTunes

iTunes

1

iTunes

iTunes

iTunes

WEBRip

iTunes

30
pack

Вам бонус

ВАЖНО

!!Акция!!

Alien_RageХит недели

RePack

Horizon Zero Dawn

ИГРА 18+

pack

RePack

jed

!!Акция!!

Alien_Rage

RePack

fifa19

RePack

Assassins Creed: Odyssey

RePack

NEED FOR SPEED™ PAYBACK

4 сезон

9 сезон

Бесстыжие 9 сезон

Все сериалы

все сериалы на PB.wtf

RePack

FAR CRY 5
  

Белокурая невеста из Лунного Королевства в 3Д / The White Haired Witch of Lunar Kingdom 3D (Чи Люн «Джэйкоб» Чунг / Chi Leung «Jacob» Cheung) [2014, Фэнтези, Мелодрама, Боевик, BDRip, 1080p] OverUnder / Вертикальная стереопара (DVO - Green Tea) pb.wtf

Белокурая невеста из Лунного Королевства в 3Д через торрент pb.wtf

Размер: 14.27 GB | Добавлен: 30 д. назад | Торрент скачан:6 раз
Скачать  

26-08-2020 06:13 Белокурая невеста из Лунного Королевства в 3Д Скачать торрент  

Белокурая невеста из Лунного Королевства / The White Haired Witch of Lunar Kingdom

Год выпуска: 2014
Страна: Китай (Bona Film Group, Omnijoi Media Corp.)
Жанр: Фэнтези, Мелодрама, Боевик
Продолжительность: 01:43:47

Перевод: Любительский двухголосый закадровый (Green Tea [Дмитрий Познанский и Ольга Гринтиева; перевод - Виктория Широкова])
Русские субтитры: нет
Режиссер: Чи Люн «Джэйкоб» Чунг / Chi Leung «Jacob» Cheung

В ролях: Бинбин Фань, Сяо Мин Хуан, Вэньчжо Чжао, Хуан Цзяньсинь, Юйшэн Лян...

Описание: В центре событий — мстительница, которая наказывает людей во имя Луны за чинимые ими преступления и несправедливости, история о боевых искусствах, мести, любви, чести и романтике.

Сэмпл: http://sendfile.su/1574020

Качество: BDrip, 1080p
Контейнер: MKV
Формат 3D: OverUnder / Вертикальная стереопара
Порядок ракурсов: левый ракурс первый
Видео кодек: x264
Аудио кодек: AC3
Видео: AVC / High@L5.0 / 23,976 fps / 1920х2160 / 18,7 Мбит/сек
Аудио: Русский / AC3 / 48 KHz / 5.1 ch / 640 Кбит/сек(DVO - Green Tea) (сведение в 5.1 - Ash61)

ВНИМАНИЕ ! На встроенных ТВ-плеерах работать не будет!!!

ТВ Samsung в названии которого есть надпись Ultra HD , и LG Ultra HD 800 серии, LG C6P, Xiaomi Mi TV 2, GRUNDIG VLE 8474 BL, Samsung UE48H6200AK воспроизводят полные стереопары встроенными плеерами
Железные плееры на которых воспроизводятся полные стереопары:Popcorn C-200, Popcorn a-400, Dune HD Smart D1 , Dune HD DUO , Dune HD Smart H1 , Dune HD Smart B1 , Dune HD Max , Dune HD TV-303D, Dune HD TV-102, Dune HD Base 3D, Philips HMP7001, Aura HD, MECOOL BB2, Zidoo x9s, Lake I Cloud, MiBox 3
Чтобы изображение было на весь экран в плеере выставляем, если рип 1920х1600 - то выставляем 2.35:1 , если 1920х2160 - то выставляем 16:9
Общее
Уникальный идентификатор : 202458524516176709059019890713046294011 (0x985017EEB671389EA3FDC709FAA01DFB)
Полное имя : E:\видео\The White Haired Witch of Lunar Kingdom.Rip by SeRoGa00.mkv
Формат : Matroska
Версия формата : Version 2
Размер файла : 14,3 Гбайт
Продолжительность : 1 ч. 43 м.
Общий поток : 19,7 Мбит/сек
Дата кодирования : UTC 2020-08-26 04:48:53
Программа кодирования : mkvmerge v3.4.0 ('Rapunzel') сборка от May 15 2010 09:38:20
Библиотека кодирования : libebml v0.8.0 + libmatroska v0.9.0

Видео
Идентификатор : 1
Формат : AVC
Формат/Информация : Advanced Video Codec
Профиль формата : High@L5.0
Параметр CABAC формата : Да
Параметр ReFrames формата : 4 кадра
Идентификатор кодека : V_MPEG4/ISO/AVC
Продолжительность : 1 ч. 43 м.
Битрейт : 18,7 Мбит/сек
Ширина : 1920 пикселей
Высота : 2160 пикселей
Соотношение сторон : 0,889
Частота кадров : 23,976 кадра/сек
Цветовое пространство : YUV
Субдискретизация насыщенности : 4:2:0
Битовая глубина : 8 бит
Тип развёртки : Прогрессивная
Бит/(Пиксели*Кадры) : 0.188
Размер потока : 13,5 Гбайт (95%)
Заголовок : Rip by SeRoGa00
Библиотека кодирования : x264 core 157 r2969 d4099dd
Настройки программы : cabac=1 / ref=4 / deblock=1:-3:-3 / analyse=0x3:0x113 / me=umh / subme=10 / psy=1 / psy_rd=1.00:0.15 / mixed_ref=1 / me_range=24 / chroma_me=1 / trellis=2 / 8x8dct=1 / cqm=0 / deadzone=21,11 / fast_pskip=1 / chroma_qp_offset=-3 / threads=18 / lookahead_threads=6 / sliced_threads=0 / nr=0 / decimate=0 / interlaced=0 / bluray_compat=0 / constrained_intra=0 / bframes=10 / b_pyramid=2 / b_adapt=2 / b_bias=0 / direct=3 / weightb=1 / open_gop=0 / weightp=2 / keyint=250 / keyint_min=23 / scenecut=40 / intra_refresh=0 / rc_lookahead=60 / rc=crf / mbtree=1 / crf=16.5 / qcomp=0.60 / qpmin=10 / qpmax=69 / qpstep=4 / vbv_maxrate=40000 / vbv_bufsize=40000 / crf_max=0.0 / nal_hrd=none / filler=0 / ip_ratio=1.40 / aq=1:1.00
Язык : English
Default : Нет
Forced : Нет

Аудио
Идентификатор : 2
Формат : AC-3
Формат/Информация : Audio Coding 3
Расширение режима : CM (complete main)
Параметр Endianness формата : Big
Идентификатор кодека : A_AC3
Продолжительность : 1 ч. 43 м.
Вид битрейта : Постоянный
Битрейт : 640 Кбит/сек
Каналы : 6 каналов
Расположение каналов : Front: L C R, Side: L R, LFE
Частота : 48,0 КГц
Битовая глубина : 16 бит
Метод сжатия : С потерями
Размер потока : 475 Мбайт (3%)
Язык : Russian
Default : Да
Forced : Нет

Меню
00:00:00.000 : :1
00:06:04.656 : :2
00:10:38.972 : :3
00:14:54.602 : :4
00:19:04.143 : :5
00:23:51.513 : :6
00:28:30.876 : :7
00:33:19.623 : :8
00:39:06.803 : :9
00:44:54.400 : :10
00:53:07.101 : :11
01:00:14.027 : :12
01:06:05.879 : :13
01:12:06.572 : :14
01:17:44.785 : :15
01:24:26.478 : :16
01:28:31.389 : :17
01:32:54.903 : :18
01:36:35.999 : :19
01:39:40.141 : :20
скриншот  

скриншот  

скриншот  

скриншот  

скриншот  

скриншот  

скриншот  

скриншот  
pb.wtf



Скачать Белокурая невеста из Лунного Королевства в 3Д через торрент https://a.radikal.ru/a27/2008/ef/85817c4f9848.png Скачать фильм Белокурая невеста из Лунного Королевства в 3Д через торрент бесплантно в хорошем качестве Описание: В центре событий — мстительница, которая наказывает людей во имя Луны за чинимые ими преступления и несправедливости, история о ... 5 10 1
Торрент: Зарегистрирован [2020-08-26 06:13] · скачан: 6 раз
Статус: √ проверено
Размер: 14.27 GB
Как cкачать? Как скачать Белокурая невеста из Лунного Королевства в 3Д через торрент | qTorrent

28-11-2019 20:33  

Отключить всю рекламу на сайте

    Дорогой пользователь! Огромная просьба, поблагодарите релизера, оцените раздачу и оставьте свои комментарий, если Вы скачали Белокурая невеста из Лунного Королевства в 3Д через торрент бесплатно! Внесите свою лепту в развитие PiratBit!
    Комментировать посты могут только пользователи прошедшие не сложную регистрацию
    Показать сообщения:    

    Белокурая невеста из Лунного Королевства в 3Д через торрент
    Скачать бесплатно Белокурая невеста из Лунного Королевства в 3Д
    Белокурая невеста из Лунного Королевства в 3Д скачать торрент
    Белокурая невеста из Лунного Королевства в 3Д смотреть онлайн
    Cкачать фильм Белокурая невеста из Лунного Королевства в 3Д бесплатно
    Белокурая невеста из Лунного Королевства в 3Д скачать торрент в хорошем качестве
    Белокурая невеста из Лунного Королевства в 3Д смотреть онлайн бесплатно в хорошем качестве


    Вы не можете начинать темы
    Вы не можете отвечать на сообщения
    Вы не можете редактировать свои сообщения
    Вы не можете удалять свои сообщения
    Вы не можете голосовать в опросах
    Вы не можете прикреплять файлы к сообщениям
    Вы можете скачивать файлы