2 сезон

iTunes

MVO

1

2 сезон

iTunes

1 сезон

1 сезон

RePack

30

Новинка

ВАЖНО

ИГРА 18+

pack

RePack

MK11
pack

Легкие деньги

RePack

jed

RePack

fifa19

RePack

RDR2

RePack

NEED FOR SPEED™ PAYBACK

4 сезон

9 сезон

Бесстыжие 9 сезон

Все сериалы

все сериалы на PB.wtf

RePack

FAR CRY 5

Anonymous, добрый вечер, мы не успеваем собрать деньги на оплату серверов за декабрь и январь, помогите нам пожалуйста в это трудное время. В качестве благодарности мы отключим Вам всю рекламу на сайте (укажите свой ник в строку Ваше имя)!

×
  
Magnet ссылка

Инопланетный код / The Men / Alien Code (Майкл Дж. Куни) [2018 г., фантастика, триллер, детектив, WEB-DLRip-AVC] [DUB] [iTunes] pb.wtf

Инопланетный код через торрент pb.wtf

Размер: 2.08 GB | Добавлен: 5 мес. 2 д. назад | Торрент скачан:177 раз
Скачать  

26-08-2020 08:02 Инопланетный код Скачать торрент  


Инопланетный код / The Men / Alien Code
Информация о фильме:
Название: Инопланетный код
Оригинальное название: The Men / Alien Code
Год выхода: 2018
Жанр: фантастика, триллер, детектив
Режиссер: Майкл Дж. Куни

В ролях: Нил Арноте, Аарон Бер, Тейт Бёрчмор, Кайл Галлнер, Грэм Гамильтон, Джошуа Лэнг, Мэри МакКормак, Бретт Ньютон, Ричард Шифф, Ной Скотт

Описание: Алекс работает специалистом по взлому кодов и шифров в американской компании. Однажды, вернувшись домой, он обнаруживает в гостиной своё собственное бездыханное тело. А рядом флешку с запиской: «Посмотри меня». Алекс открывает загадочный USB-накопитель и начинает просмотр. На экране он видит самого себя из будущего и слышит рассказ о том, что удалось засечь сигналы, передаваемые неизвестным космическим спутником, в них было зашифровано сообщение о существовании инопланетных существ. Эта информация полностью меняет сознание Алекса. Вскоре за ним начинают охоту неизвестные.

rating

Страна: США
Студия: The Men Productions
Продолжительность: 01:41:24
Перевод: Дублированное - iTunes



Информация о файле:
Кодек: AVC
Формат: MKV
Качество: WEB-DLRip-AVC
Видео: MPEG-4 AVC, 1032x430 (2,40:1), 2 555 Кбит/сек, 23,976 кадра/сек, 0.240
Аудио RU: AC3, 6 ch, 48 kHz, 384 kbps

|


Общее
Уникальный идентификатор : 164478832932241348126392863598057815548 (0x7BBD789096027FD9CA76C6709D22FDFC)
Полное имя : D:uTorrentРипы_от_wolf1245_MediaBitALIEN_CODE_2018_WEB-DLRip-AVC_WOLF1245_MEDIABIT.mkv
Формат : Matroska
Версия формата : Version 4
Размер файла : 2,08 Гбайт
Продолжительность : 1 ч. 41 м.
Общий поток : 2 937 Кбит/сек
Название фильма : ALIEN_CODE_2018_WEB-DLRip-AVC_WOLF1245_MEDIABIT
Дата кодирования : UTC 2020-08-26 07:44:36
Программа кодирования : mkvmerge v49.0.0 ('Sick Of Losing Soulmates') 64-bit
Библиотека кодирования : libebml v1.4.0 + libmatroska v1.6.1
Обложка : Yes
Attachments : Cover.jpg

Видео
Идентификатор : 1
Формат : AVC
Формат/Информация : Advanced Video Codec
Профиль формата : High@L4.1
Настройки формата : CABAC / 10 Ref Frames
Параметр CABAC формата : Да
Параметр RefFrames формата : 10 кадров
Идентификатор кодека : V_MPEG4/ISO/AVC
Продолжительность : 1 ч. 41 м.
Битрейт : 2 555 Кбит/сек
Ширина : 1 032 пикселя
Высота : 430 пикселей
Соотношение сторон : 2,40:1
Режим частоты кадров : Постоянный
Частота кадров : 23,976 (24000/1001) кадра/сек
Цветовое пространство : YUV
Субдискретизация насыщенности : 4:2:0
Битовая глубина : 8 бит
Тип развёртки : Прогрессивная
Бит/(Пиксели*Кадры) : 0.240
Размер потока : 1,81 Гбайт (87%)
Заголовок : WOLF1245_MEDIABIT
Библиотека кодирования : x264 core 157 r2958 57baac4
Настройки программы : cabac=1 / ref=10 / deblock=1:-3:-3 / analyse=0x3:0x133 / me=umh / subme=11 / psy=1 / psy_rd=1.00:0.15 / mixed_ref=1 / me_range=48 / chroma_me=1 / trellis=2 / 8x8dct=1 / cqm=0 / deadzone=21,11 / fast_pskip=0 / chroma_qp_offset=-3 / threads=10 / lookahead_threads=2 / sliced_threads=0 / nr=0 / decimate=0 / interlaced=0 / bluray_compat=0 / constrained_intra=0 / bframes=10 / b_pyramid=2 / b_adapt=2 / b_bias=10 / direct=3 / weightb=1 / open_gop=0 / weightp=2 / keyint=240 / keyint_min=24 / scenecut=40 / intra_refresh=0 / rc_lookahead=60 / rc=2pass / mbtree=0 / bitrate=2555 / ratetol=1.0 / qcomp=0.60 / qpmin=0 / qpmax=69 / qpstep=4 / cplxblur=20.0 / qblur=0.5 / vbv_maxrate=50000 / vbv_bufsize=62500 / nal_hrd=none / filler=0 / ip_ratio=1.40 / pb_ratio=1.30 / aq=1:1.00
Язык : English
Default : Да
Forced : Нет
Цветовой диапазон : Limited
Основные цвета : BT.709
Характеристики трансфера : BT.709
Коэффициенты матрицы : BT.709

Аудио
Идентификатор : 2
Формат : AC-3
Формат/Информация : Audio Coding 3
Коммерческое название : Dolby Digital
Идентификатор кодека : A_AC3
Продолжительность : 1 ч. 41 м.
Вид битрейта : Постоянный
Битрейт : 384 Кбит/сек
Каналы : 6 каналов
Channel layout : L R C LFE Ls Rs
Частота : 48,0 КГц
Частота кадров : 31,250 кадров/сек (1536 SPF)
Метод сжатия : С потерями
Размер потока : 279 Мбайт (13%)
Заголовок : [MVO] | iTunes
Язык : Russian
Service kind : Complete Main
Default : Да
Forced : Нет
Релиз от: &
pb.wtf



Скачать Инопланетный код через торрент https://c.radikal.ru/c13/2008/be/3c58c654d7d3.jpg Скачать фильм Инопланетный код через торрент бесплантно в хорошем качестве Описание: Алекс работает специалистом по взлому кодов и шифров в американской компании. Однажды, вернувшись домой, он обнаруживает в ... 10 10 4
Торрент: Зарегистрирован [2020-08-26 08:02] · скачан: 177 раз
Статус: √ проверено
Размер: 2.08 GB
Как cкачать? Как скачать Инопланетный код через торрент | UTorrent

% Раздел Тема Автор DL S | L
Фильмы 2018 [DVDrip, WEB-DLRip, HDrip] (DUB, MVO) [ 1.46 GB ] Инопланетный код / Alien Code / The Men [2018 WEB-DLRip] killermax2013 Скачать
4 | 0
Фильмы (WEB-DL 720p, 1080p) [ 3.63 GB ] Инопланетный код / The Men / Alien Code [2017 WEB-DL 1080p] bober100 Скачать
4 | 0

28-11-2019 20:33  

Отключить всю рекламу на сайте

26-08-2020 10:31 Инопланетный код Скачать торрент  

Редкостное гуауно!pb.wtf



26-08-2020 11:06 Инопланетный код Скачать торрент  

Peps писал(а):

Редкостное гуауно!

спс. не качаюpb.wtf



26-08-2020 15:43 Инопланетный код Скачать торрент  

Peps писал(а):

Редкостное гуауно!

А я погляжу.pb.wtf



26-08-2020 16:34 Инопланетный код Скачать торрент  

то же посмотрю.pb.wtf



    Дорогой пользователь! Огромная просьба, поблагодарите релизера, оцените раздачу и оставьте свои комментарий, если Вы скачали Инопланетный код через торрент бесплатно! Внесите свою лепту в развитие PiratBit!
    Комментировать посты могут только пользователи прошедшие не сложную регистрацию
    Показать сообщения:    

    Инопланетный код через торрент
    Скачать бесплатно Инопланетный код
    Инопланетный код скачать торрент
    Инопланетный код смотреть онлайн
    Cкачать фильм Инопланетный код бесплатно
    Инопланетный код скачать торрент в хорошем качестве
    Инопланетный код смотреть онлайн бесплатно в хорошем качестве


    Вы не можете начинать темы
    Вы не можете отвечать на сообщения
    Вы не можете редактировать свои сообщения
    Вы не можете удалять свои сообщения
    Вы не можете голосовать в опросах
    Вы не можете прикреплять файлы к сообщениям
    Вы можете скачивать файлы