Ссылка на приватное зеркало нашего сайта всего за 1$. Внимание количество ограничено!!!

2 сезон

iTunes

1 сезон

1

iTunes

iTunes

iTunes

1 сезон

RePack

30

ИГРА 18+

pack

ВАЖНО

!!Акция!!

Alien_RageХит недели

RePack

MK11
pack

Забери бонус

RePack

jed

!!Акция!!

Alien_Rage

RePack

fifa19

RePack

Assassins Creed: Odyssey

RePack

NEED FOR SPEED™ PAYBACK

4 сезон

9 сезон

Бесстыжие 9 сезон

Все сериалы

все сериалы на PB.wtf

RePack

FAR CRY 5
  

Принцесса Лебедь: Королевская свадьба / The Swan Princess: A Royal Wedding (Ричард Рич) [2020, Мультфильм, WEB-DLRip-AVC] MVO [iTunes] от wolf1245 & MediaBit pb.wtf

Принцесса Лебедь: Королевская свадьба через торрент pb.wtf

Раздают: 2 [ 0 KB/s ]
Размер: 1.69 GB | Добавлен: 1 мес. 30 д. назад | Торрент скачан:40 раз
Скачать  

26-08-2020 11:00 Принцесса Лебедь: Королевская свадьба Скачать торрент  


Принцесса Лебедь: Королевская свадьба / The Swan Princess: A Royal Wedding
Информация о фильме:
Название: Принцесса Лебедь: Королевская свадьба
Оригинальное название: The Swan Princess: A Royal Wedding
Год выхода: 2020
Жанр: Мультфильм
Режиссер: Ричард Рич

В ролях: Александр Чен, Нина Херцог, Гарднер Джаэс, Юрий Ловенталь, Стефани Ше, Йи Лин

Описание: Действие сказки переносится в загадочные, полные древней магии земли Китая. Очаровательная Мэй Ли собирается выйти за своего возлюбленного – прекрасного юношу Чэна. На пышную церемонию приглашены представители разных королевств. Среди них и наши герои – Одетта с Дереком. Однако счастливые планы влюблённых нарушает злая колдунья Фэн, задумавшая сама стать женой Чэна. Для этого она подстерегла бедную Мэй Ли в лесу и с помощью злых чар превратила её в старушку. Сама же приняла облик принцессы. Но Одетта, узнавшая о злых намерениях колдуньи, хочет помешать ей реализовать коварный план. В этом ей помогут её верные друзья и любимый Дерек. Но смогут ли смелые герои разрушить тёмную магию злой колдуньи Фэн?

rating

Страна: США
Студия: Sony Wonder
Продолжительность: 01:22:17
Перевод: Профессиональный (многоголосый, закадровый) - iTunes



Информация о файле:
Кодек: AVC
Формат: MKV
Качество: WEB-DLRip-AVC
Видео: MPEG-4 AVC, 1024x576 (16:9), 2 558 Кбит/сек, 23,976 кадра/сек, 0.181
Аудио RU: AC3, 6 ch, 48 kHz, 384 kbps
Субтитры: Русские (Forced, full), украинские (Full), английские
Навигация по главам: Есть

|


Общее
Уникальный идентификатор : 118134101954106687494656137240951743883 (0x58DFCCE9AE07CB1C61C6896A0F2D658B)
Полное имя : D:uTorrentРипы_от_wolf1245_MediaBitThe Swan Princess- A Royal Wedding (2020) WEB-DLRip-AVC_wolf1245_MediaBit.mkv
Формат : Matroska
Версия формата : Version 4
Размер файла : 1,69 Гбайт
Продолжительность : 1 ч. 22 м.
Общий поток : 2 942 Кбит/сек
Название фильма : The Swan Princess: A Royal Wedding (2020) WEB-DLRip-AVC_wolf1245_MediaBit
Дата кодирования : UTC 2020-08-26 10:39:45
Программа кодирования : mkvmerge v49.0.0 ('Sick Of Losing Soulmates') 64-bit
Библиотека кодирования : libebml v1.4.0 + libmatroska v1.6.1
Обложка : Yes
Attachments : Cover_.jpg

Видео
Идентификатор : 1
Формат : AVC
Формат/Информация : Advanced Video Codec
Профиль формата : High@L4.1
Настройки формата : CABAC / 10 Ref Frames
Параметр CABAC формата : Да
Параметр RefFrames формата : 10 кадров
Идентификатор кодека : V_MPEG4/ISO/AVC
Продолжительность : 1 ч. 22 м.
Битрейт : 2 558 Кбит/сек
Ширина : 1 024 пикселя
Высота : 576 пикселей
Соотношение сторон : 16:9
Режим частоты кадров : Постоянный
Частота кадров : 23,976 (24000/1001) кадра/сек
Цветовое пространство : YUV
Субдискретизация насыщенности : 4:2:0
Битовая глубина : 8 бит
Тип развёртки : Прогрессивная
Бит/(Пиксели*Кадры) : 0.181
Размер потока : 1,47 Гбайт (87%)
Заголовок : wolf1245_MEDIABIT
Библиотека кодирования : x264 core 157 r2958 57baac4
Настройки программы : cabac=1 / ref=10 / deblock=1:-3:-3 / analyse=0x3:0x133 / me=umh / subme=11 / psy=1 / psy_rd=1.00:0.15 / mixed_ref=1 / me_range=48 / chroma_me=1 / trellis=2 / 8x8dct=1 / cqm=0 / deadzone=21,11 / fast_pskip=0 / chroma_qp_offset=-3 / threads=10 / lookahead_threads=2 / sliced_threads=0 / nr=0 / decimate=0 / interlaced=0 / bluray_compat=0 / constrained_intra=0 / bframes=10 / b_pyramid=2 / b_adapt=2 / b_bias=10 / direct=3 / weightb=1 / open_gop=0 / weightp=2 / keyint=240 / keyint_min=24 / scenecut=40 / intra_refresh=0 / rc_lookahead=60 / rc=2pass / mbtree=0 / bitrate=2558 / ratetol=1.0 / qcomp=0.60 / qpmin=0 / qpmax=69 / qpstep=4 / cplxblur=20.0 / qblur=0.5 / vbv_maxrate=50000 / vbv_bufsize=62500 / nal_hrd=none / filler=0 / ip_ratio=1.40 / pb_ratio=1.30 / aq=1:1.00
Язык : English
Default : Да
Forced : Нет
Цветовой диапазон : Limited
Основные цвета : BT.709
Характеристики трансфера : BT.709
Коэффициенты матрицы : BT.709

Аудио
Идентификатор : 2
Формат : AC-3
Формат/Информация : Audio Coding 3
Коммерческое название : Dolby Digital
Идентификатор кодека : A_AC3
Продолжительность : 1 ч. 22 м.
Вид битрейта : Постоянный
Битрейт : 384 Кбит/сек
Каналы : 6 каналов
Channel layout : L R C LFE Ls Rs
Частота : 48,0 КГц
Частота кадров : 31,250 кадров/сек (1536 SPF)
Метод сжатия : С потерями
Размер потока : 226 Мбайт (13%)
Заголовок : MVO | iTunes
Язык : Russian
Service kind : Complete Main
Default : Да
Forced : Нет

Текст #1
Идентификатор : 3
Формат : UTF-8
Идентификатор кодека : S_TEXT/UTF8
Идентификатор кодека/Информация : UTF-8 Plain Text
Продолжительность : 1 ч. 6 м.
Битрейт : 2 бит/сек
Count of elements : 33
Размер потока : 1,40 Кбайт (0%)
Заголовок : Forced
Язык : Russian
Default : Да
Forced : Да

Текст #2
Идентификатор : 4
Формат : UTF-8
Идентификатор кодека : S_TEXT/UTF8
Идентификатор кодека/Информация : UTF-8 Plain Text
Продолжительность : 1 ч. 21 м.
Битрейт : 81 бит/сек
Count of elements : 997
Размер потока : 48,9 Кбайт (0%)
Заголовок : Full
Язык : Russian
Default : Нет
Forced : Нет

Текст #3
Идентификатор : 5
Формат : UTF-8
Идентификатор кодека : S_TEXT/UTF8
Идентификатор кодека/Информация : UTF-8 Plain Text
Продолжительность : 1 ч. 21 м.
Битрейт : 79 бит/сек
Count of elements : 995
Размер потока : 47,7 Кбайт (0%)
Заголовок : Full
Язык : Ukrainian
Default : Нет
Forced : Нет

Текст #4
Идентификатор : 6
Формат : UTF-8
Идентификатор кодека : S_TEXT/UTF8
Идентификатор кодека/Информация : UTF-8 Plain Text
Продолжительность : 1 ч. 21 м.
Битрейт : 43 бит/сек
Count of elements : 995
Размер потока : 26,1 Кбайт (0%)
Заголовок : Full
Язык : English
Default : Нет
Forced : Нет

Меню
00:00:00.000 : :1
00:05:53.144 : :2
00:11:38.239 : :3
00:17:30.339 : :4
00:23:27.697 : :5
00:29:32.894 : :6
00:36:24.305 : :7
00:42:54.027 : :8
00:47:37.518 : :9
00:51:40.719 : :10
00:58:07.188 : :11
01:04:30.320 : :12
01:09:56.395 : :13
01:14:38.885 : :14
01:20:10.007 : :15
01:26:56.412 : :16
Релиз от: &
pb.wtf



Скачать Принцесса Лебедь: Королевская свадьба через торрент https://b.radikal.ru/b23/2008/30/c2fe73c28339.jpg Скачать фильм Принцесса Лебедь: Королевская свадьба через торрент бесплантно в хорошем качестве Описание: Действие сказки переносится в загадочные, полные древней магии земли Китая. Очаровательная Мэй Ли собирается выйти за своего ... 10 10 2
Торрент: Зарегистрирован [2020-08-26 11:00] · скачан: 40 раз
Статус: √ проверено
Размер: 1.69 GB
Как cкачать? Как скачать Принцесса Лебедь: Королевская свадьба через торрент | qTorrent

28-11-2019 20:33  

Отключить всю рекламу на сайте

    Дорогой пользователь! Огромная просьба, поблагодарите релизера, оцените раздачу и оставьте свои комментарий, если Вы скачали Принцесса Лебедь: Королевская свадьба через торрент бесплатно! Внесите свою лепту в развитие PiratBit!
    Комментировать посты могут только пользователи прошедшие не сложную регистрацию
    Показать сообщения:    

    Принцесса Лебедь: Королевская свадьба через торрент
    Скачать бесплатно Принцесса Лебедь: Королевская свадьба
    Принцесса Лебедь: Королевская свадьба скачать торрент
    Принцесса Лебедь: Королевская свадьба смотреть онлайн
    Cкачать фильм Принцесса Лебедь: Королевская свадьба бесплатно
    Принцесса Лебедь: Королевская свадьба скачать торрент в хорошем качестве
    Принцесса Лебедь: Королевская свадьба смотреть онлайн бесплатно в хорошем качестве


    Вы не можете начинать темы
    Вы не можете отвечать на сообщения
    Вы не можете редактировать свои сообщения
    Вы не можете удалять свои сообщения
    Вы не можете голосовать в опросах
    Вы не можете прикреплять файлы к сообщениям
    Вы можете скачивать файлы