Ссылка на приватное зеркало нашего сайта всего за 1$. Внимание количество ограничено!!!

2 сезон

iTunes

1 сезон

1

2 сезон

2 сезон

iTunes

1 сезон

RePack

30

Новинка

ВАЖНО

ИГРА 18+

pack

RePack

MK11
pack

Забери бонус

RePack

jed

!!Акция!!

Alien_Rage

RePack

fifa19

RePack

Assassins Creed: Odyssey

RePack

NEED FOR SPEED™ PAYBACK

4 сезон

9 сезон

Бесстыжие 9 сезон

Все сериалы

все сериалы на PB.wtf

RePack

FAR CRY 5
  

Близкие контакты / Близость / Proximity (Эрик Демьюзи) [2020, Фантастика, драма, BDRip 1080p] MVO [iTunes] pb.wtf

Близкие контакты через торрент pb.wtf

Раздают: 1 [ 0 KB/s ]
Размер: 13.21 GB | Добавлен: 3 мес. 8 д. назад | Торрент скачан:190 раз
Скачать  

26-08-2020 16:24 Близкие контакты Скачать торрент  

Близкие контакты | Близость | Proximity
Год выпуска: 2020
Страна: США
Выпущено: Demeusy Pictures, Shout!Studios, Instrum International
Жанр: Фантастика, драма
Продолжительность: 01:59:23
Перевод: Профессиональный (многоголосый) | iTunes
Субтитры: Russian (Forced, Full), English

Режиссер: Эрик Демьюзи

rating

В ролях: Раян Мэссон, Хайди Куан, Кристиан Прентис, Шоу Джонс, Дон Скрибнер, Номи Абади, Дэвид Баумгарднер, Энтони Брэдфорд, Джозеф Баттлер, Йен Коулмэн и др.

Описание: Молодого ученого из НАСА похищают инопланетяне. Когда он возвращается, ему никто не верит. Стремясь доказать правду, ученый отправляется в путь, полный неожиданных открытий.

Качество: BDRip 1080p
Формат: MKV

Видео: MPEG-4 AVC, 13.9 Мбит/с, 1920x812, 23.976 fps
Аудио#1: Русский (AC3, 6 ch, 384 Кбит/с)
Аудио#2: английский (DTS, 6 ch, 1509 Кбит/с)
скриншот  скриншот  скриншот  скриншот  

Complete name : Proximity.2020.1080p.BluRay.ELEKTRI4KA.UNIONGANG.mkv
Format : Matroska
Format version : Version 4 / Version 2
File size : 13.2 GiB
Duration : 1 h 59 min
Overall bit rate : 15.8 Mb/s
Movie name : .ELEKTRI4KA.UNIONGANG.
Encoded date : UTC 2020-08-26 10:41:48
Writing application : mkvmerge v8.3.0 ('Over the Horizon') 64bit
Writing library : libebml v1.3.1 + libmatroska v1.4.2

Video
ID : 1
Format : AVC
Format/Info : Advanced Video Codec
Format profile : High@L4.1
Format settings, CABAC : Yes
Format settings, Reference frames : 5 frames
Codec ID : V_MPEG4/ISO/AVC
Duration : 1 h 59 min
Bit rate : 13.9 Mb/s
Width : 1 920 pixels
Height : 812 pixels
Display aspect ratio : 2.35:1
Frame rate mode : Constant
Frame rate : 23.976 (24000/1001) FPS
Color space : YUV
Chroma subsampling : 4:2:0
Bit depth : 8 bits
Scan type : Progressive
Bits/(Pixel*Frame) : 0.373
Stream size : 11.6 GiB (88%)
Title : .ELEKTRI4KA.UNIONGANG.
Writing library : x264 core 161 r3011+56M ~ Encoded by Mocunaman in Portugal
Encoding settings : cabac=1 / ref=5 / deblock=1:-3:-3 / analyse=0x3:0x113 / me=umh / subme=11 / psy=1 / fade_compensate=0.00 / psy_rd=1.00:0.00 / mixed_ref=1 / me_range=32 / chroma_me=1 / trellis=2 / 8x8dct=1 / cqm=0 / deadzone=21,11 / fast_pskip=0 / chroma_qp_offset=-2 / threads=25 / lookahead_threads=6 / sliced_threads=0 / nr=0 / decimate=0 / interlaced=0 / bluray_compat=0 / constrained_intra=0 / fgo=0 / bframes=12 / b_pyramid=2 / b_adapt=2 / b_bias=0 / direct=3 / weightb=1 / open_gop=0 / weightp=2 / keyint=250 / keyint_min=23 / scenecut=40 / intra_refresh=0 / rc_lookahead=60 / rc=crf / mbtree=0 / crf=16.0000 / qcomp=0.60 / qpmin=0:0:0 / qpmax=69:69:69 / qpstep=4 / vbv_maxrate=62500 / vbv_bufsize=78125 / crf_max=0.0 / nal_hrd=none / filler=0 / ip_ratio=1.30 / pb_ratio=1.20 / aq=3:0.80 / aq-sensitivity=10.00 / aq-factor=1.00:1.00:1.00 / aq2=0 / aq3=0 / zones=4043,4887,crf=14/10446,10504,crf=11/10510,11990,crf=15/23107,23897,crf=15/27117,27405,crf=14/31171,31323,crf=15/32041,32082,crf=11/113243,113834,crf=14
Language : English
Default : Yes
Forced : No
Color range : Limited
Color primaries : BT.709
Transfer characteristics : BT.709
Matrix coefficients : BT.709

Audio #1
ID : 2
Format : AC-3
Format/Info : Audio Coding 3
Mode extension : CM (complete main)
Format settings, Endianness : Big
Codec ID : A_AC3
Duration : 1 h 59 min
Bit rate mode : Constant
Bit rate : 384 kb/s
Channel(s) : 6 channels
Channel positions : Front: L C R, Side: L R, LFE
Sampling rate : 48.0 kHz
Frame rate : 31.250 FPS (1536 spf)
Bit depth : 16 bits
Compression mode : Lossy
Stream size : 328 MiB (2%)
Title : iTunes
Language : Russian
Default : Yes
Forced : Yes

Audio #2
ID : 3
Format : DTS
Format/Info : Digital Theater Systems
Mode : 16
Format settings, Endianness : Big
Codec ID : A_DTS
Duration : 1 h 59 min
Bit rate mode : Constant
Bit rate : 1 509 kb/s
Channel(s) : 6 channels
Channel positions : Front: L C R, Side: L R, LFE
Sampling rate : 48.0 kHz
Frame rate : 93.750 FPS (512 spf)
Bit depth : 24 bits
Compression mode : Lossy
Stream size : 1.26 GiB (10%)
Title : DTS 5.1
Language : English
Default : No
Forced : No

Text #1
ID : 4
Format : UTF-8
Codec ID : S_TEXT/UTF8
Codec ID/Info : UTF-8 Plain Text
Duration : 1 h 55 min
Bit rate : 2 b/s
Count of elements : 42
Stream size : 2.49 KiB (0%)
Title : Forced
Language : Russian
Default : Yes
Forced : Yes

Text #2
ID : 5
Format : UTF-8
Codec ID : S_TEXT/UTF8
Codec ID/Info : UTF-8 Plain Text
Duration : 1 h 56 min
Bit rate : 81 b/s
Count of elements : 1433
Stream size : 69.2 KiB (0%)
Title : Full
Language : Russian
Default : No
Forced : No

Text #3
ID : 6
Format : UTF-8
Codec ID : S_TEXT/UTF8
Codec ID/Info : UTF-8 Plain Text
Duration : 1 h 56 min
Bit rate : 44 b/s
Count of elements : 1424
Stream size : 37.8 KiB (0%)
Title : Full
Language : English
Default : No
Forced : No

Text #4
ID : 7
Format : UTF-8
Codec ID : S_TEXT/UTF8
Codec ID/Info : UTF-8 Plain Text
Duration : 1 h 58 min
Bit rate : 51 b/s
Count of elements : 1724
Stream size : 45.0 KiB (0%)
Title : SDH
Language : English
Default : No
Forced : No

Menu
00:00:00.000 : en:Chapter 01
00:09:34.407 : en:Chapter 02
00:18:51.964 : en:Chapter 03
00:28:40.135 : en:Chapter 04
00:40:51.491 : en:Chapter 05
00:47:50.117 : en:Chapter 06
01:01:11.126 : en:Chapter 07
01:16:45.267 : en:Chapter 08
01:27:28.243 : en:Chapter 09
01:35:14.709 : en:Chapter 10
01:47:26.106 : en:Chapter 11
01:56:02.372 : en:Chapter 12

pb.wtf



Скачать Близкие контакты через торрент http://lostpix.com/thumbs/2020-08/19/juafpoy9e7zstro7omts1vohm.png Скачать фильм Близкие контакты через торрент бесплантно в хорошем качестве Описание: Молодого ученого из НАСА похищают инопланетяне. Когда он возвращается, ему никто не верит. Стремясь доказать правду, ученый ... 10 10 9
Торрент: Зарегистрирован [2020-08-26 16:24] · скачан: 190 раз
Статус: √ проверено
Размер: 13.21 GB
Как cкачать? Как скачать Близкие контакты через торрент | qTorrent

% Раздел Тема Автор DL S | L
Фильмы 2019-2020 [DVDrip, WEB-DLRip, HDrip] (DUB, MVO) [ 1.41 GB ] Близкие контакты / Близость / Proximity [2020 BDRip] MVO Twi7ter Скачать
15 | 0
Фильмы 2019-2020 [DVDrip, WEB-DLRip, HDrip] (DUB, MVO) [ 745 MB ] Близкие контакты / Близость / Proximity [2020 HDRip] MVO bober100 Скачать
3 | 0
Фильмы 2019-2020 [DVDrip, WEB-DLRip, HDrip] (DUB, MVO) [ 2.19 GB ] Близкие контакты / Близость / Proximity [2020 HDRip] MVO bober100 Скачать
1 | 0
Фильмы 2019-2020 [DVDrip, WEB-DLRip, HDrip] (DUB, MVO) [ 1.46 GB ] Близкие контакты / Близость / Proximity [2020 HDRip] MVO bober100 Скачать
2 | 0
Фильмы [HD 720p, 1080p] (Хороший звук DUB, MVO) [ 6.22 GB ] Близкие контакты / Близость / Proximity [2020 BDRip 720p] MVO bober100 Скачать
1 | 0

28-11-2019 20:33  

Отключить всю рекламу на сайте

26-08-2020 17:05 Близкие контакты Скачать торрент  

вроде по трейлеру ничего, на 6 балов потянет, интересно откуда 4,8, кто смотрел ?pb.wtf



    Дорогой пользователь! Огромная просьба, поблагодарите релизера, оцените раздачу и оставьте свои комментарий, если Вы скачали Близкие контакты через торрент бесплатно! Внесите свою лепту в развитие PiratBit!
    Комментировать посты могут только пользователи прошедшие не сложную регистрацию
    Показать сообщения:    

    Близкие контакты через торрент
    Скачать бесплатно Близкие контакты
    Близкие контакты скачать торрент
    Близкие контакты смотреть онлайн
    Cкачать фильм Близкие контакты бесплатно
    Близкие контакты скачать торрент в хорошем качестве
    Близкие контакты смотреть онлайн бесплатно в хорошем качестве


    Вы не можете начинать темы
    Вы не можете отвечать на сообщения
    Вы не можете редактировать свои сообщения
    Вы не можете удалять свои сообщения
    Вы не можете голосовать в опросах
    Вы не можете прикреплять файлы к сообщениям
    Вы можете скачивать файлы