Ссылка на приватное зеркало нашего сайта всего за 1$. Внимание количество ограничено!!!

2 сезон

iTunes

1 сезон

1

2 сезон

2 сезон

iTunes

1 сезон

RePack

30

Ultimate

ВАЖНО

ИГРА 18+

pack

RePack

MK11
pack

Забери бонус

RePack

jed

!!Акция!!

Alien_Rage

RePack

fifa19

RePack

Assassins Creed: Odyssey

RePack

NEED FOR SPEED™ PAYBACK

4 сезон

9 сезон

Бесстыжие 9 сезон

Все сериалы

все сериалы на PB.wtf

RePack

FAR CRY 5
  

Давай сделаем ребенка / Conception (Джош Столберг) [2011, Мелодрама, комедия, WEB-DL 1080p] MVO [iTunes] pb.wtf

Давай сделаем ребенка через торрент pb.wtf

Раздают: 2 [ 0 KB/s ]
Размер: 3.29 GB | Добавлен: 2 мес. 30 д. назад | Торрент скачан:44 раза
Скачать  

27-08-2020 17:51 Давай сделаем ребенка Скачать торрент  

Давай сделаем ребенка | Conception
Год выпуска: 2011
Страна: США
Выпущено: Rock It Productions
Жанр: Мелодрама, комедия
Продолжительность: 01:26:40
Перевод: Профессиональный (многоголосый) | iTunes
Субтитры: отсутствуют

Режиссер: Джош Столберг

rating

В ролях: Памела Адлон, Дэвид Аркетт, Аарон Эшмор, Мун Бладгуд, Джули Боуэн, Конни Бриттон, Дженнифер Финниган, Тим Гриффин, Стив Хоуи, Сара Хайланд

Описание: В фильме показана жизнь девяти совершенно разных пар, у которых на уме только одно – как зачать ребенка.

Качество: WEB-DL 1080p
Формат: MKV

Видео: MPEG-4 AVC, 5042 Kb/s, 1920x1024, 24 FPS
Аудио: 48 kHz, AC3 Dolby Digital, 3/2 (L, C, R, l, r) + LFE ch, ~384 Kbps
скриншот  скриншот  скриншот  скриншот  

Video
ID : 1
Format : AVC
Format/Info : Advanced Video Codec
Format profile : High@L4
Format settings : CABAC / 4 Ref Frames
Format settings, CABAC : Yes
Format settings, Reference : 4 frames
Codec ID : V_MPEG4/ISO/AVC
Duration : 1 h 26 min
Bit rate : 5 042 kb/s
Width : 1 920 pixels
Height : 1 024 pixels
Display aspect ratio : 1.85:1
Frame rate mode : Constant
Frame rate : 24.000 FPS
Color space : YUV
Chroma subsampling : 4:2:0
Bit depth : 8 bits
Scan type : Progressive
Bits/(Pixel*Frame) : 0.107
Stream size : 3.05 GiB (93%)
Title : CONCEPTION_2011_WEB-DL_1080p-BLUEBIRD
Language : English
Default : Yes
Forced : No
Color range : Limited
Color primaries : BT.709
Transfer characteristics : BT.709
Matrix coefficients : BT.709

Audio
ID : 2
Format : AC-3
Format/Info : Audio Coding 3
Commercial name : Dolby Digital
Codec ID : A_AC3
Duration : 1 h 26 min
Bit rate mode : Constant
Bit rate : 384 kb/s
Channel(s) : 6 channels
Channel layout : L R C LFE Ls Rs
Sampling rate : 48.0 kHz
Frame rate : 31.250 FPS (1536 SPF)
Compression mode : Lossy
Delay relative to video : -42 ms
Stream size : 238 MiB (7%)
Title : [MVO] DD 5.1 @ 384 kbps (iTunes)
Language : Russian
Service kind : Complete Main
Default : Yes
Forced : No

Menu
00:00:00.000 : en:Глава 1
00:05:48.625 : en:Глава 2
00:11:39.875 : en:Глава 3
00:20:22.583 : en:Глава 4
00:28:49.166 : en:Глава 5
00:39:05.957 : en:Глава 6
00:45:43.373 : en:Глава 7
00:55:09.164 : en:Глава 8
01:07:29.330 : en:Глава 9
01:13:27.538 : en:Глава 10
01:20:08.413 : en:Глава 11

pb.wtf



Скачать Давай сделаем ребенка через торрент https://d.radikal.ru/d13/2008/4a/2db5bfdf83ee.png Скачать фильм Давай сделаем ребенка через торрент бесплантно в хорошем качестве Описание: В фильме показана жизнь девяти совершенно разных пар, у которых на уме только одно – как зачать ... 10 10 5
Торрент: Зарегистрирован [2020-08-27 17:51] · скачан: 44 раз
Статус: √ проверено
Размер: 3.29 GB
Как cкачать? Как скачать Давай сделаем ребенка через торрент | qTorrent

% Раздел Тема Автор DL S | L
Фильмы 2011 [ 1.47 GB ] Давай сделаем ребенка / Conception [2011 HDTVRip многоголосый закадровый "IPTV"] coc900 Скачать
1 | 0

28-11-2019 20:33  

Отключить всю рекламу на сайте

    Дорогой пользователь! Огромная просьба, поблагодарите релизера, оцените раздачу и оставьте свои комментарий, если Вы скачали Давай сделаем ребенка через торрент бесплатно! Внесите свою лепту в развитие PiratBit!
    Комментировать посты могут только пользователи прошедшие не сложную регистрацию
    Показать сообщения:    

    Давай сделаем ребенка через торрент
    Скачать бесплатно Давай сделаем ребенка
    Давай сделаем ребенка скачать торрент
    Давай сделаем ребенка смотреть онлайн
    Cкачать фильм Давай сделаем ребенка бесплатно
    Давай сделаем ребенка скачать торрент в хорошем качестве
    Давай сделаем ребенка смотреть онлайн бесплатно в хорошем качестве


    Вы не можете начинать темы
    Вы не можете отвечать на сообщения
    Вы не можете редактировать свои сообщения
    Вы не можете удалять свои сообщения
    Вы не можете голосовать в опросах
    Вы не можете прикреплять файлы к сообщениям
    Вы можете скачивать файлы