Всегда рабочее зеркало без VPN и Proxy просто перед .vidak.icu напиши любое слово или цифру, Пример http://bq6l.vidak.icu

MVO

2 сезон

1 сезон

1

1 сезон

iTunes

2 сезон

13

1 сезон

Deluxe

pack

Рекомендуем

Пиратка

30

ВАЖНО

RePack

MK11

RePack

jed

RePack

fifa19

RePack

RDR2

RePack

NEED FOR SPEED™ PAYBACK

Кинопоиск HD

6 сезон

 Острые козырьки 6 сезон

Все сериалы

все сериалы на PB.wtf

RePack

FAR CRY 5

Anonymous, нам критически не хватает 5601 руб. на оплату серверов и переферии за Апрель, помоги нам пожалуйста, вся надежда только на тебя. В благодарность мы отключим тебе всю рекламу на сайте!

×
  
Magnet ссылка

И пришел паук / Along Came a Spider (Ли Тамахори / Lee Tamahori) [2001, триллер, криминал, детектив, BDRip 720p] pb.wtf

И пришел паук через торрент pb.wtf

Размер: 3.99 GB | Добавлен: 11 лет назад | Торрент скачан:60 раз
Смотреть онлайн И пришел паук | Скачать    Ребята, помогите собрать деньги на оплату серверов!!!

03-02-2011 07:21 И пришел паук Скачать торрент  

И пришел паук / Along Came a Spider «The game is far from over»
Год выпуска: 2001
Страна: США, Германия, Канада
Жанр: триллер, криминал, детектив
Продолжительность: 01:43:03

  • Перевод: Профессиональный (многоголосый, закадровый), Авторский (Живов Юрий)
  • Cубтитры: русские (Николай Грызин), английски (srt)
  • Формат субтитров: srt
  • Оригинальная аудиодорожка: Английская

Режиссер: Ли Тамахори / Lee Tamahori
В ролях: Морган Фриман, Моника Поттер, Майкл Уинкотт, Дилан Бейкер, Мика Бурем, Антон Ельчин, Кимберли Хоторн, Джей О. Сэндерс, Билли Бёрк, Майкл Мориарти, Пенелопа Энн Миллер, Анна Мария Хорсфорд
Описание: Дочь известного сенатора похищена из закрытой, привилегированной школы. Похититель не выдвигает никаких требований и безжалостно расправляется со всеми, кто пытается встать у него на пути. Единственный человек, которому маньяк позвонил сразу после похищения, был Алекс Кросс.
Опытный сыщик понимает, что убийца решил предпочесть выкупу страшную и непредсказуемую игру, на кону которой - жизнь маленькой девочки. У Кросса и сотрудницы службы безопасности Джизи Флэниген остается очень мало времени, чтобы спасти ребенка...

  • Качество: BDRip| | Формат: MKV
  • Видео кодек: х.264 | Аудио кодек: AC-3
  • Видео: 1280x544; 4079 Kbps; 23,976 fps
  • Аудио 1: Russian; AC3; 6ch; 48kHz; CBR; 384 Kbps - MVO
  • Аудио 2: Russian; AC3; 6ch; 48kHz; CBR; 448 Kbps - AVO [Y.Zhivov]
  • Аудио 3: English; AC3; 6ch; 48kHz; CBR; 640 Kbps
  • Cубтитры 1: Russian; UTF-8; SRT - [N.Gryzin]
  • Cубтитры 2: English; UTF-8; SRT

General
Complete name : Along.came.a_spider.2001.BDRip.AVC.AC3.rus.eng.mkv
Format : Matroska
File size : 3.99 GiB
Duration : 1h 43mn
Overall bit rate : 5 549 Kbps
Movie name : Along Came a Spider (2001) BDRip AVC.AC3 tRuAVC
Encoded date : UTC 2011-02-01 20:17:57
Writing application : mkvmerge v3.4.0 ('Rapunzel') built on May 15 2010 09:38:20
Writing library : libebml v0.8.0 + libmatroska v0.9.0
Cover : Cover Picture

Video
ID : 1
Format : AVC
Format/Info : Advanced Video Codec
Format profile : High@L4.1
Format settings, CABAC : Yes
Format settings, ReFrames : 9 frames
Codec ID : V_MPEG4/ISO/AVC
Duration : 1h 43mn
Bit rate : 3 966 Kbps
Width : 1 280 pixels
Height : 544 pixels
Display aspect ratio : 2.35:1
Frame rate : 23.976 fps
Color space : YUV
Chroma subsampling : 4:2:0
Bit depth : 8 bits
Scan type : Progressive
Bits/(Pixel*Frame) : 0.238
Stream size : 2.86 GiB (71%)
Title : x264.AVC-1280x544
Writing library : x264 core 113 r1884 7313bb5
Encoding settings : cabac=1 / ref=9 / deblock=1:-2:-2 / analyse=0x3:0x113 / me=umh / subme=10 / psy=1 / psy_rd=1.10:0.30 / mixed_ref=1 / me_range=32 / chroma_me=1 / trellis=2 / 8x8dct=1 / cqm=0 / deadzone=21,11 / fast_pskip=1 / chroma_qp_offset=-4 / threads=4 / sliced_threads=0 / nr=0 / decimate=1 / interlaced=0 / constrained_intra=0 / bframes=10 / b_pyramid=2 / b_adapt=2 / b_bias=0 / direct=1 / weightb=1 / open_gop=0 / weightp=2 / keyint=250 / keyint_min=23 / scenecut=45 / intra_refresh=0 / rc_lookahead=80 / rc=crf / mbtree=1 / crf=17.8 / qcomp=0.75 / qpmin=0 / qpmax=69 / qpstep=4 / vbv_maxrate=50000 / vbv_bufsize=62500 / crf_max=0.0 / nal_hrd=none / ip_ratio=1.40 / aq=2:0.90 / zones=140650,148137,q=35
Language : English
Transfer characteristics : BT.709-5, BT.1361
Matrix coefficients : BT.709-5, BT.1361, IEC 61966-2-4 709, SMPTE RP177

Audio #1
ID : 2
Format : AC-3
Format/Info : Audio Coding 3
Mode extension : CM (complete main)
Codec ID : A_AC3
Duration : 1h 43mn
Bit rate mode : Constant
Bit rate : 384 Kbps
Channel(s) : 6 channels
Channel positions : Front: L C R, Side: L R, LFE
Sampling rate : 48.0 KHz
Bit depth : 16 bits
Compression mode : Lossy
Stream size : 283 MiB (7%)
Title : Russian - MVO
Language : Russian

Audio #2
ID : 3
Format : AC-3
Format/Info : Audio Coding 3
Mode extension : CM (complete main)
Codec ID : A_AC3
Duration : 1h 43mn
Bit rate mode : Constant
Bit rate : 448 Kbps
Channel(s) : 6 channels
Channel positions : Front: L C R, Side: L R, LFE
Sampling rate : 48.0 KHz
Bit depth : 16 bits
Compression mode : Lossy
Stream size : 330 MiB (8%)
Title : Russian - AVO [Y.Zhivov]
Language : Russian

Audio #3
ID : 4
Format : AC-3
Format/Info : Audio Coding 3
Mode extension : CM (complete main)
Codec ID : A_AC3
Duration : 1h 43mn
Bit rate mode : Constant
Bit rate : 640 Kbps
Channel(s) : 6 channels
Channel positions : Front: L C R, Side: L R, LFE
Sampling rate : 48.0 KHz
Bit depth : 16 bits
Compression mode : Lossy
Stream size : 472 MiB (12%)
Title : English
Language : English

Text #1
ID : 5
Format : UTF-8
Codec ID : S_TEXT/UTF8
Codec ID/Info : UTF-8 Plain Text
Title : Russian - [N.Gryzin]
Language : Russian

Text #2
ID : 6
Format : UTF-8
Codec ID : S_TEXT/UTF8
Codec ID/Info : UTF-8 Plain Text
Title : English
Language : English

Menu
00:00:00.000 : en:Scene 01
00:11:53.754 : en:Scene 02
00:21:11.019 : en:Scene 03
00:30:15.230 : en:Scene 04
00:37:49.016 : en:Scene 05
00:42:09.652 : en:Scene 06
00:50:02.916 : en:Scene 07
00:53:53.897 : en:Scene 08
01:01:13.961 : en:Scene 09
01:11:41.213 : en:Scene 10
01:18:07.099 : en:Scene 11
01:20:32.702 : en:Scene 12
01:21:24.212 : en:Scene 13
01:22:54.427 : en:Scene 14
01:26:28.182 : en:Scene 15
01:36:02.131 : en:Scene 16

Rip------------------------------------------Source




pb.wtf



Скачать И пришел паук через торрент http://lostpic.net/images/5f3bf50f20c74fde4ea86d7d820d5fb0.jpg Скачать, смотреть онлайн И пришел паук бесплантно в хорошем качестве Описание: Дочь известного сенатора похищена из закрытой, привилегированной школы. Похититель не выдвигает никаких требований и безжалостно ... 5 10 2
Info! Золотая раздача, скачанное не засчитывается.
Торрент: Зарегистрирован [2011-02-03 07:21] · скачан: 60 раз
Статус: √ проверено
Размер: 3.99 GB
Как cкачать? Как скачать И пришел паук через торрент | UTorrent

% Раздел Тема Автор DL S | L
Фильмы с авторской озвучкой [ 2.21 GB ] И пришел паук / Along Came a Spider [2001 BDRip-AVC] [VO] + [AVO] killermax2013 Скачать
1 | 0
Фильмы 2001-2005 [ 2.19 GB ] И пришел паук / Along Came a Spider [ 2001 Германия BDRip ] MVO Ворон Скачать
1 | 0
Фильмы 2001-2005 [ 1.74 GB ] И пришел паук / Along Came a Spider [2001 DVDRip] Lil Badun Скачать
1 | 0

28-11-2019 20:33  

Отключить всю рекламу на сайте

    Дорогой пользователь! Огромная просьба, поблагодарите релизера, оцените раздачу и оставьте свои комментарий, если Вы скачали И пришел паук через торрент бесплатно!
    Комментировать посты могут только пользователи прошедшие не сложную регистрацию
    Показать сообщения:    

    И пришел паук через торрент
    Скачать бесплатно И пришел паук
    И пришел паук скачать торрент
    И пришел паук смотреть онлайн
    Cкачать фильм И пришел паук бесплатно
    И пришел паук скачать торрент в хорошем качестве
    И пришел паук смотреть онлайн бесплатно в хорошем качестве


    Вы не можете начинать темы
    Вы не можете отвечать на сообщения
    Вы не можете редактировать свои сообщения
    Вы не можете удалять свои сообщения
    Вы не можете голосовать в опросах
    Вы не можете прикреплять файлы к сообщениям
    Вы можете скачивать файлы