Ссылка на приватное зеркало нашего сайта всего за 1$. Внимание количество ограничено!!!

2 сезон

iTunes

1 сезон

1

iTunes

iTunes

iTunes

1 сезон

RePack

30

ИГРА 18+

pack

ВАЖНО

!!Акция!!

Alien_RageХит недели

RePack

MK11
pack

Забери бонус

RePack

jed

!!Акция!!

Alien_Rage

RePack

fifa19

RePack

Assassins Creed: Odyssey

RePack

NEED FOR SPEED™ PAYBACK

4 сезон

9 сезон

Бесстыжие 9 сезон

Все сериалы

все сериалы на PB.wtf

RePack

FAR CRY 5
  

Вий (Георгий Кропачев, Константин Ершов) [1967, ужасы, фэнтези, драма, BDRip 720p] [US Transfer] - KORSAR pb.wtf

Вий через торрент pb.wtf

Размер: 3.27 GB | Добавлен: 1 мес. 27 д. назад | Торрент скачан:7 раз
Скачать  

28-08-2020 14:49 Вий Скачать торрент  

Вий
Год выпуска: 1967
Страна: СССР
Жанр: Ужасы, фэнтези, драма
Продолжительность: 01:16:34
Перевод: Не требуется
Cубтитры: Русские, английские
Режиссёр: Георгий Кропачев, Константин Ершов
В ролях: Леонид Куравлёв, Наталья Варлей, Алексей Глазырин, Николай Кутузов, Вадим Захарченко, Петр Вескляров, Владимир Сальников, Дмитрий Капка, Степан Шкурат, Георгий Сочевко
Описание: Студент-философ Хома Брут должен провести несколько ночей у гроба умершей панночки в старой церквушке в далекой деревне. Сможет ли он побороть свой страх, или ему придется столкнуться с нечистой силой?

rating

Качество: BDRip 720p
Формат: MKV
Видео: MPEG-4 AVC, 984х718, 5660 kbps, 23.976 fps
Аудио: Russian: 48 kHz, AC3, 2.0 ch, 16 bits, 448 kbps

Релиз от:


JPN Transfer-----vs-----US Transfer: https://screenshotcomparison.com/comparison/5793/
x264 [info]: frame I:595 Avg QP:15.77 size:110748
x264 [info]: frame P:20521 Avg QP:17.22 size: 61375
x264 [info]: frame B:89044 Avg QP:19.08 size: 21623
x264 [info]: consecutive B-frames: 1.1% 1.0% 3.3% 6.4% 9.7% 74.7% 2.2% 0.1% 0.2% 1.0% 0.3%

======================================================================

General
Unique ID : 268025111295591989717655013403058584453 (0xC9A3C23EB29932F5DA098DE2E6A13B85)
Complete name : Вий (1967) US Transfer BDRip 720p - KORSAR.mkv
Format : Matroska
Format version : Version 4 / Version 2
File size : 3.27 GiB
Duration : 1 h 16 min
Overall bit rate : 6 111 kb/s
Movie name : Вий (1967)_rip_dy_Cthulhu
Encoded date : UTC 2019-11-12 16:47:56
Writing application : mkvmerge v37.0.0 ('Leave It') 64-bit
Writing library : libebml v1.3.9 + libmatroska v1.5.2
Cover : Yes
Attachments : cover1.png

Video
ID : 1
Format : AVC
Format/Info : Advanced Video Codec
Format profile : High@L4.1
Format settings : CABAC / 11 Ref Frames
Format settings, CABAC : Yes
Format settings, ReFrames : 11 frames
Codec ID : V_MPEG4/ISO/AVC
Duration : 1 h 16 min
Bit rate : 5 660 kb/s
Width : 984 pixels
Height : 718 pixels
Display aspect ratio : 1.370
Frame rate mode : Constant
Frame rate : 23.976 (24000/1001) FPS
Color space : YUV
Chroma subsampling : 4:2:0
Bit depth : 8 bits
Scan type : Progressive
Bits/(Pixel*Frame) : 0.334
Stream size : 3.03 GiB (93%)
Writing library : x264 core 152 r2851kMod ba24899
Encoding settings : cabac=1 / ref=11 / deblock=1:-2:-2 / analyse=0x3:0x133 / me=umh / subme=11 / psy=1 / fade_compensate=0.00 / psy_rd=1.00:0.00 / mixed_ref=1 / me_range=48 / chroma_me=1 / trellis=2 / 8x8dct=1 / cqm=0 / deadzone=21,11 / fast_pskip=0 / chroma_qp_offset=-2 / threads=22 / lookahead_threads=5 / sliced_threads=0 / nr=0 / decimate=1 / interlaced=0 / bluray_compat=0 / constrained_intra=0 / bframes=10 / b_pyramid=2 / b_adapt=2 / b_bias=0 / direct=3 / weightb=1 / open_gop=0 / weightp=2 / keyint=240 / keyint_min=23 / scenecut=40 / intra_refresh=0 / rc_lookahead=60 / rc=crf / mbtree=0 / crf=18.0000 / qcomp=0.60 / qpmin=0 / qpmax=39 / qpstep=4 / vbv_maxrate=50000 / vbv_bufsize=62500 / crf_max=0.0 / nal_hrd=none / filler=0 / ip_ratio=1.40 / pb_ratio=1.30 / aq=3:1.00
Language : Russian
Default : Yes
Forced : No
Color range : Limited
Color primaries : BT.709
Transfer characteristics : BT.709
Matrix coefficients : BT.709

Audio
ID : 2
Format : AC-3
Format/Info : Audio Coding 3
Commercial name : Dolby Digital
Codec ID : A_AC3
Duration : 1 h 16 min
Bit rate mode : Constant
Bit rate : 448 kb/s
Channel(s) : 2 channels
Channel layout : L R
Sampling rate : 48.0 kHz
Frame rate : 31.250 FPS (1536 SPF)
Bit depth : 16 bits
Compression mode : Lossy
Stream size : 245 MiB (7%)
Language : Russian
Service kind : Complete Main
Default : Yes
Forced : No

Text #1
ID : 3
Format : UTF-8
Codec ID : S_TEXT/UTF8
Codec ID/Info : UTF-8 Plain Text
Duration : 1 h 14 min
Bit rate : 46 b/s
Count of elements : 471
Stream size : 25.3 KiB (0%)
Language : Russian
Default : No
Forced : No

Text #2
ID : 4
Format : UTF-8
Codec ID : S_TEXT/UTF8
Codec ID/Info : UTF-8 Plain Text
Duration : 1 h 15 min
Bit rate : 30 b/s
Count of elements : 472
Stream size : 17.0 KiB (0%)
Language : English
Default : No
Forced : No

Text #3
ID : 5
Format : UTF-8
Codec ID : S_TEXT/UTF8
Codec ID/Info : UTF-8 Plain Text
Duration : 1 h 15 min
Bit rate : 47 b/s
Count of elements : 896
Stream size : 26.2 KiB (0%)
Title : SDH
Language : English
Default : No
Forced : No

Menu
00:00:00.000 : ru:Титры / Начало каникул в семинарии
00:05:28.203 : ru:Поиски ночлега
00:12:04.306 : ru:Мистические приключения
00:15:27.885 : ru:Приказ ректора
00:18:38.992 : ru:В дороге
00:28:11.188 : ru:Последнее желание панночки
00:32:17.601 : ru:Прощание с покойной
00:39:10.054 : ru:Первая ночь в церкви
00:46:03.217 : ru:Наутро
00:50:07.168 : ru:Кошмары второй ночи
00:55:33.911 : ru:"Музыкантов! Непременно музыкантов!"
00:57:18.015 : ru:Разговор с паном сотником
01:01:36.315 : ru:Побег не удался...
01:05:55.699 : ru:Чертовщина третьей ночи
01:13:08.005 : ru:Эпилог. Поминание Хомы Брута
pb.wtf



Скачать Вий через торрент https://i4.imageban.ru/out/2020/08/28/b27f2c6164b5c758217d0a833c3d1836.png Скачать фильм Вий через торрент бесплантно в хорошем качестве Описание: Студент-философ Хома Брут должен провести несколько ночей у гроба умершей панночки в старой церквушке в далекой деревне. Сможет ... 10 10 1
Info! Золотая раздача, скачанное не засчитывается.
Торрент: Зарегистрирован [2020-08-28 14:49] · скачан: 7 раз
Статус: √ проверено
Размер: 3.27 GB
Как cкачать? Как скачать Вий через торрент | qTorrent

% Раздел Тема Автор DL S | L
Кино СССР [ 7.36 GB ] Вий [1967 BDRip 1080p] [US Transfer] - KORSAR kisa1980 Скачать
1 | 0
Кино СССР [ 4.63 GB ] Вий [1967 BDRip-HEVC 1080p ] [US Transfer] - KORSAR kisa1980 Скачать
1 | 0

28-11-2019 20:33  

Отключить всю рекламу на сайте

    Дорогой пользователь! Огромная просьба, поблагодарите релизера, оцените раздачу и оставьте свои комментарий, если Вы скачали Вий через торрент бесплатно! Внесите свою лепту в развитие PiratBit!
    Комментировать посты могут только пользователи прошедшие не сложную регистрацию
    Показать сообщения:    

    Вий через торрент
    Скачать бесплатно Вий
    Вий скачать торрент
    Вий смотреть онлайн
    Cкачать фильм Вий бесплатно
    Вий скачать торрент в хорошем качестве
    Вий смотреть онлайн бесплатно в хорошем качестве


    Вы не можете начинать темы
    Вы не можете отвечать на сообщения
    Вы не можете редактировать свои сообщения
    Вы не можете удалять свои сообщения
    Вы не можете голосовать в опросах
    Вы не можете прикреплять файлы к сообщениям
    Вы можете скачивать файлы