2 сезон

iTunes

MVO

1

2 сезон

iTunes

iTunes

1 сезон

RePack

30

Новинка

ВАЖНО

ИГРА 18+

pack

RePack

MK11
pack

Легкие деньги

RePack

jed

RePack

fifa19

RePack

RDR2

RePack

NEED FOR SPEED™ PAYBACK

4 сезон

9 сезон

Бесстыжие 9 сезон

Все сериалы

все сериалы на PB.wtf

RePack

FAR CRY 5

Anonymous, добрый вечер, мы не успеваем собрать деньги на оплату серверов за декабрь и январь, помогите нам пожалуйста в это трудное время. В качестве благодарности мы отключим Вам всю рекламу на сайте (укажите свой ник в строку Ваше имя)!

×
  
Magnet ссылка

Кобра Кай / Cobra Kai / Сезон: 2 / Серии: 1- из 10 (Джон Харвитц, Хейден Шлоссберг, Дженнифер Челотта) [2019, боевик, драма, комедия, WEB-DL 1080p] MVO [VSI Moscow] pb.wtf

Кобра Кай через торрент pb.wtf

Размер: 2.06 GB | Добавлен: 4 мес. 17 д. назад | Торрент скачан:0 раз
Скачать  

29-08-2020 03:35 Кобра Кай Скачать торрент  

Кобра Кай | Cobra Kai
Год выпуска: 2019
Страна: США
Выпущено: Hurwitz & Schlossberg Productions, Overbrook Entertainment, Sony Pictures Television
Жанр: боевик, драма, комедия
Продолжительность: ~ 00:35:00 серия
Перевод: Профессиональный (многоголосый) | VSI Moscow
Субтитры: Русские, английские

Режиссер: Джон Харвитц, Хейден Шлоссберг, Дженнифер Челотта

rating

В ролях: Ральф Маччио, Уильям Забка, Кортни Хенгелер, Холо Маридуэньо, Тэннер Бьюкэнэн, Мэри Мэтилин Маусер, Джейкоб Бертран, Nichole Brown, Griffin Santopietro, Джанни Десенцо

Описание: В прошлом хулиган, а ныне разорившийся неудачник, Джонни Лоуренс считает, что единственный его шанс вернуться к нормальной жизни — заново открыть печально известную школу карате «Кобра Кай». Попытка наладить свои дела сводит Джонни с Дэниелом ЛаРуссо — успешным мужчиной, который изо всех сил старается сохранять жизненную гармонию, которой когда-то учил его мистер Мияги. Встретившись вновь, Дэнни и Джонни пытаются избавиться от демонов прошлого и проблем настоящего единственным известным им способом — с помощью карате.

Качество: WEB-DL 1080p
Формат: MKV

Видео: MPEG-4 AVC, 1920 x 1080 (16:9), 23.976 fps, ~6939 kbps
Аудио#1 Rus: E-AC-3, 48 kHz, 6 ch, 640 kbps
Аудио#2 Eng: E-AC-3, 48 kHz, 6 ch, 640 kbps
скриншот  скриншот  скриншот  скриншот  скриншот  

Общее
Уникальный идентификатор : 56667958427006347050416333126886425332 (0x2AA1DA0FB5449DE49D8D5B639AB302F4)
Полное имя : D:\Cobra.Kai.S02.1080p.AMZN.WEB-DL.DDP5.1.x264-NTG_Kyle\Cobra.Kai.S02E01.Mercy.Part.2.1080p.AMZN.WEB-DL.DDP5.1.H.264-NTG_Kyle.mkv
Формат : Matroska
Версия формата : Version 4 / Version 2
Размер файла : 2,06 Гбайт
Продолжительность : 35 м. 59 с.
Общий поток : 8192 Кбит/сек
Дата кодирования : UTC 2020-08-28 08:22:06
Программа кодирования : mkvmerge v49.0.0 ('Sick Of Losing Soulmates') 64-bit
Библиотека кодирования : libebml v1.4.0 + libmatroska v1.6.1

Видео
Идентификатор : 1
Формат : AVC
Формат/Информация : Advanced Video Codec
Профиль формата : High@L4
Параметр CABAC формата : Да
Параметр RefFrames формата : 4 кадра
Идентификатор кодека : V_MPEG4/ISO/AVC
Продолжительность : 35 м. 59 с.
Вид битрейта : Постоянный
Битрейт : 6939 Кбит/сек
Номинальный битрейт : 10000 Кбит/сек
Ширина : 1920 пикселей
Высота : 1080 пикселей
Соотношение сторон : 16:9
Режим частоты кадров : Постоянный
Частота кадров : 23,976 (24000/1001) кадра/сек
Цветовое пространство : YUV
Субдискретизация насыщенности : 4:2:0
Битовая глубина : 8 бит
Тип развёртки : Прогрессивная
Бит/(Пиксели*Кадры) : 0.136
Размер потока : 1,70 Гбайт (82%)
Default : Да
Forced : Нет
Цветовой диапазон : Limited
Основные цвета : BT.709
Характеристики трансфера : BT.709
Коэффициенты матрицы : BT.709

Аудио #1
Идентификатор : 2
Формат : E-AC-3
Формат/Информация : Audio Coding 3
Параметр Endianness формата : Big
Идентификатор кодека : A_EAC3
Продолжительность : 35 м. 59 с.
Вид битрейта : Постоянный
Битрейт : 640 Кбит/сек
Каналы : 6 каналов
Расположение каналов : Front: L C R, Side: L R, LFE
Частота : 48,0 КГц
Частота кадров : 187,500 кадров/сек (256 spf)
Метод сжатия : С потерями
Размер потока : 165 Мбайт (8%)
Заголовок : Russian
Язык : Russian
Default : Да
Forced : Нет

Аудио #2
Идентификатор : 3
Формат : E-AC-3
Формат/Информация : Audio Coding 3
Параметр Endianness формата : Big
Идентификатор кодека : A_EAC3
Продолжительность : 35 м. 59 с.
Вид битрейта : Постоянный
Битрейт : 640 Кбит/сек
Каналы : 6 каналов
Расположение каналов : Front: L C R, Side: L R, LFE
Частота : 48,0 КГц
Частота кадров : 187,500 кадров/сек (256 spf)
Метод сжатия : С потерями
Размер потока : 165 Мбайт (8%)
Заголовок : English
Язык : English
Default : Нет
Forced : Нет

Текст #1
Идентификатор : 4
Формат : UTF-8
Идентификатор кодека : S_TEXT/UTF8
Идентификатор кодека/Информация : UTF-8 Plain Text
Заголовок : Forced
Язык : Russian
Default : Да
Forced : Нет

Текст #2
Идентификатор : 5
Формат : UTF-8
Идентификатор кодека : S_TEXT/UTF8
Идентификатор кодека/Информация : UTF-8 Plain Text
Язык : Russian
Default : Нет
Forced : Нет

Текст #3
Идентификатор : 6
Формат : UTF-8
Идентификатор кодека : S_TEXT/UTF8
Идентификатор кодека/Информация : UTF-8 Plain Text
Язык : English
Default : Нет
Forced : Нет

Текст #4
Идентификатор : 7
Формат : UTF-8
Идентификатор кодека : S_TEXT/UTF8
Идентификатор кодека/Информация : UTF-8 Plain Text
Заголовок : SDH
Язык : English
Default : Нет
Forced : Нет

Когда раздача ведётся путём добавления новых серий, при каждом добавлении создётся новый торрент. Чтобы начать докачку новой серии, пользователям необходимо сделать следующее:
(1) остановить скачивание,
(2) удалить старый торрент у себя из клиента (старые серии удалять не надо),
(3) скачать новый торрент и запустить его у себя в клиенте вместо старого, при этом указать клиенту путь в старую папку, куда и должно происходить скачивание новых серий.
Ваш клиент при этом должен произвести хеширование (проверку) старой папки (если не производит сам - помогите ему сделать это), и будет докачивать только те серии, которых у вас ещё нет. Старые серии при этом не удаляются, а продолжают раздаваться!
Eсли вы уже удалили старые серии, то предотвратить повторную закачку старых серий можно, отжав галочку в соответсвующих местах при запуске нового торрента. По возможности, желательно не удалять старые серии как можно дольше, чтобы релизёр не столько продолжал раздавать старые серии, а смог сконцентрироваться на новых.

pb.wtf



Скачать Кобра Кай через торрент https://i110.fastpic.ru/big/2019/0428/8c/5fb621cdfb54d7919ea6952edaa8578c.jpg Скачать фильм Кобра Кай через торрент бесплантно в хорошем качестве Описание: В прошлом хулиган, а ныне разорившийся неудачник, Джонни Лоуренс считает, что единственный его шанс вернуться к нормальной жизни ... 10 10 3
Info! Золотая раздача, скачанное не засчитывается.
Торрент: Зарегистрирован [2020-08-29 03:35] · скачан: 0 раз
Статус: √ проверено
Размер: 2.06 GB
Как cкачать? Как скачать Кобра Кай через торрент | UTorrent

% Раздел Тема Автор DL S | L
Зарубежные сериалы [ 27.86 GB ] Кобра-Кай / Cobra Kai / Сезон: 2 / Серии: 1-10 из 10 [2019 WEB-DL 2160p] [MVO] killermax2013 Скачать
1 | 0
Зарубежные сериалы [ 13.7 GB ] Кобра-Кай / Cobra Kai / Сезон: 2 / Серии: 1-10 из 10 [2019 WEB-DL 1080p] [MVO] killermax2013 Скачать
1 | 0
Зарубежные сериалы [ 2.91 GB ] Кобра-Кай / Cobra Kai / Сезон: 2 / Серии: 1-10 из 10 [2019 WEBRip] [DVO] killermax2013 Скачать
1 | 0
Зарубежные сериалы [ 3.5 GB ] Кобра-Кай / Cobra Kai / Сезон: 2 / Серии: 1-10 из 10 [2019 WEB-DLRip] [MVO] killermax2013 Скачать
1 | 0

28-11-2019 20:33  

Отключить всю рекламу на сайте

    Дорогой пользователь! Огромная просьба, поблагодарите релизера, оцените раздачу и оставьте свои комментарий, если Вы скачали Кобра Кай через торрент бесплатно! Внесите свою лепту в развитие PiratBit!
    Комментировать посты могут только пользователи прошедшие не сложную регистрацию
    Показать сообщения:    

    Кобра Кай через торрент
    Скачать бесплатно Кобра Кай
    Кобра Кай скачать торрент
    Кобра Кай смотреть онлайн
    Cкачать фильм Кобра Кай бесплатно
    Кобра Кай скачать торрент в хорошем качестве
    Кобра Кай смотреть онлайн бесплатно в хорошем качестве


    Вы не можете начинать темы
    Вы не можете отвечать на сообщения
    Вы не можете редактировать свои сообщения
    Вы не можете удалять свои сообщения
    Вы не можете голосовать в опросах
    Вы не можете прикреплять файлы к сообщениям
    Вы можете скачивать файлы