Ссылка на приватное зеркало нашего сайта всего за 1$. Внимание количество ограничено!!!

2 сезон

iTunes

1 сезон

1

2 сезон

2 сезон

iTunes

1 сезон

RePack

30

Ultimate

ВАЖНО

ИГРА 18+

pack

RePack

MK11
pack

Забери бонус

RePack

jed

!!Акция!!

Alien_Rage

RePack

fifa19

RePack

Assassins Creed: Odyssey

RePack

NEED FOR SPEED™ PAYBACK

4 сезон

9 сезон

Бесстыжие 9 сезон

Все сериалы

все сериалы на PB.wtf

RePack

FAR CRY 5
  

Микки и Мод / Micki + Maude ( Блэйк Эдвардс) [1984 г., комедия, мелодрама, WEB-DL 1080p] MVO (1 канал), AVO (Михалёв), VO (Всеволод Абдулов) pb.wtf

Микки и Мод через торрент pb.wtf

Размер: 10.82 GB | Добавлен: 3 мес. 3 д. назад | Торрент скачан:7 раз
Скачать  

29-08-2020 13:05 Микки и Мод Скачать торрент  

Микки и Мод / Micki + Maude
Год выпуска: 1984

Страна: США

Жанр: Комедия, мелодрама

Продолжительность: 01:57:54

Перевод: Профессиональный многоголосый, профессиональный одноголосый, авторский одноголосый

Субтитры: Английские

Режиссер: Блэйк Эдвардс

rating

В ролях: Дадли Мур, Эми Ирвинг, Энн Райнкинг, Ричард Маллиган, Джордж Гейнс, Уоллес Шон, Джон Плешетт, Х.Б. Хэггерти, Лу Леонард, Присцилла Пойнтер, Роберт Саймондс, Джордж Коу, Густав Винтас, Эмма Уолтон

Описание: Ведущий популярного телевизионного шоу Роб Сэленджер женат на Микки. Но из-за её плотного рабочего графика супругам очень редко удаётся находиться вместе. Однажды Роб знакомится с молодой и симпатичной девушкой Мод, с которой у них завязываются романтические отношения. Узнав, что Мод беременна, он решает на ней жениться. По иронии судьбы в это же самое время законная супруга сообщает, что тоже ждёт ребёнка. Теперь, имея рядом двух беременных женщин, Робу приходится решать вдвое больше проблем…
Качество: WEB-DL 1080p
Формат: MKV
Видео: MPEG-4 AVC, 12.3 Мбит/с, 1920x1080, 23.976 кадр/с
Аудио#1: Русский, AC3, 2 ch, 192 Кбит/сек - MVO [1 канал]
Аудио#2: Русский, AC3, 2 ch, 192 Кбит/сек - VO [Всеволод Абдулов, ВПТО ''Видеофильм'']
Аудио#3: Русский, AC3, 2 ch, 192 Кбит/сек - AVO [Алексей Михалёв]
Аудио#4: Английский, AC3, 2 ch, 224 Кбит/сек
Video
ID : 1
Format : AVC
Format/Info : Advanced Video Codec
Format profile : High@L4
Format settings : CABAC / 4 Ref Frames
Format settings, CABAC : Yes
Format settings, Reference fra : 4 frames
Codec ID : V_MPEG4/ISO/AVC
Duration : 1 h 57 min
Bit rate mode : Variable
Bit rate : 12.3 Mb/s
Maximum bit rate : 15.0 Mb/s
Width : 1 920 pixels
Height : 1 080 pixels
Display aspect ratio : 16:9
Frame rate mode : Constant
Frame rate : 23.976 (24000/1001) FPS
Color space : YUV
Chroma subsampling : 4:2:0
Bit depth : 8 bits
Scan type : Progressive
Bits/(Pixel*Frame) : 0.248
Stream size : 10.2 GiB (94%)
Title : Micki & Maude.1984.1080p.WEB-DL.DD+2.0.H.264 - Rip. alfaHD; assembly "seyshel" for kinozal.tv
Writing library : x264 core 148 r2623 d5b2374
Encoding settings : cabac=1 / ref=4 / deblock=1:-1:-1 / analyse=0x3:0x133 / me=umh / subme=9 / psy=1 / psy_rd=1.00:0.15 / mixed_ref=1 / me_range=24 / chroma_me=1 / trellis=2 / 8x8dct=1 / cqm=0 / deadzone=21,11 / fast_pskip=1 / chroma_qp_offset=-3 / threads=34 / lookahead_threads=5 / sliced_threads=0 / nr=150 / decimate=1 / interlaced=0 / bluray_compat=0 / constrained_intra=0 / bframes=8 / b_pyramid=2 / b_adapt=2 / b_bias=0 / direct=3 / weightb=1 / open_gop=0 / weightp=2 / keyint=120 / keyint_min=61 / scenecut=0 / intra_refresh=0 / rc_lookahead=120 / rc=crf / mbtree=1 / crf=18.0 / qcomp=0.60 / qpmin=0 / qpmax=69 / qpstep=4 / vbv_maxrate=15000 / vbv_bufsize=31250 / crf_max=0.0 / nal_hrd=vbr / filler=0 / ip_ratio=1.40 / aq=3:1.00
Default : Yes
Forced : No
Color range : Limited
Color primaries : BT.709
Transfer characteristics : BT.709
Matrix coefficients : BT.709

Audio #1
ID : 2
Format : AC-3
Format/Info : Audio Coding 3
Commercial name : Dolby Digital
Codec ID : A_AC3
Duration : 1 h 57 min
Bit rate mode : Constant
Bit rate : 192 kb/s
Channel(s) : 2 channels
Channel layout : L R
Sampling rate : 48.0 kHz
Frame rate : 31.250 FPS (1536 SPF)
Bit depth : 16 bits
Compression mode : Lossy
Stream size : 162 MiB (1%)
Title : AC3; 48.0 KHz; 2 ch.; 192 Kbps - MVO [1 канал]
Language : Russian
Service kind : Complete Main
Default : Yes
Forced : No

Audio #2
ID : 3
Format : AC-3
Format/Info : Audio Coding 3
Commercial name : Dolby Digital
Codec ID : A_AC3
Duration : 1 h 57 min
Bit rate mode : Constant
Bit rate : 192 kb/s
Channel(s) : 2 channels
Channel layout : L R
Sampling rate : 48.0 kHz
Frame rate : 31.250 FPS (1536 SPF)
Bit depth : 16 bits
Compression mode : Lossy
Stream size : 162 MiB (1%)
Title : AC3; 48.0 KHz; 2 ch.; 192 Kbps - AVO [Всеволод Абдулов, ВПТО ''Видеофильм'']
Language : Russian
Service kind : Complete Main
Default : No
Forced : No

Audio #3
ID : 4
Format : AC-3
Format/Info : Audio Coding 3
Commercial name : Dolby Digital
Codec ID : A_AC3
Duration : 1 h 57 min
Bit rate mode : Constant
Bit rate : 192 kb/s
Channel(s) : 2 channels
Channel layout : L R
Sampling rate : 48.0 kHz
Frame rate : 31.250 FPS (1536 SPF)
Bit depth : 16 bits
Compression mode : Lossy
Stream size : 162 MiB (1%)
Title : AC3; 48.0 KHz; 2 ch.; 192 Kbps - AVO [Алексей Михалёв]
Language : Russian
Service kind : Complete Main
Default : No
Forced : No

Audio #4
ID : 5
Format : E-AC-3
Format/Info : Enhanced AC-3
Commercial name : Dolby Digital Plus
Codec ID : A_EAC3
Duration : 1 h 57 min
Bit rate mode : Constant
Bit rate : 224 kb/s
Channel(s) : 2 channels
Channel layout : L R
Sampling rate : 48.0 kHz
Frame rate : 31.250 FPS (1536 SPF)
Compression mode : Lossy
Stream size : 189 MiB (2%)
Title : EAC3; 48.0 KHz; 2 ch.; 224 Kbps - English
Language : English
Service kind : Complete Main
Default : No
Forced : No

Text #1
ID : 6
Format : UTF-8
Codec ID : S_TEXT/UTF8
Codec ID/Info : UTF-8 Plain Text
Duration : 1 h 54 min
Bit rate : 51 b/s
Count of elements : 1997
Stream size : 42.8 KiB (0%)
Title : English - SRT
Language : English
Default : No
Forced : No

Text #2
ID : 7
Format : UTF-8
Codec ID : S_TEXT/UTF8
Codec ID/Info : UTF-8 Plain Text
Duration : 1 h 54 min
Bit rate : 51 b/s
Count of elements : 2015
Stream size : 43.1 KiB (0%)
Title : English - SRT(SDH)
Language : English
Default : No
Forced : No

Menu
00:00:20.000 : en:01. Start 01
00:02:52.937 : en:02. Rob Salinger, TV Reporter 02
00:06:51.827 : en:03. Micki Salinger, Attorney 03
00:10:12.444 : en:04. Maude Guillory, Cellist 04
00:18:13.883 : en:05. After-Concert Party 05
00:19:33.589 : en:06. Maude's Hollow Leg 06
00:22:16.000 : en:07. The Affair Begins 07
00:24:50.072 : en:08. The Men Who Hates Deception 08
00:32:42.667 : en:09. "I'm Pregnant." 09
00:36:07.582 : en:10. Barkhas Guillory, Father-Of-The-Bride 10
00:38:55.333 : en:11. It Punch & The Pillow 11
00:41:18.267 : en:12. "I'm Pregnant." 12
00:48:43.962 : en:13. Covering A Gangster's Wedding 13
00:52:39.615 : en:14. The Green Sweater 14
00:56:50.656 : en:15. Truth Or Consequences 15
01:01:15.630 : en:16. "I'm Not Fit To Be A Mother." 16
01:07:19.452 : en:17. Rob's Bad News 17
01:12:19.585 : en:18. Name Game 18
01:14:59.204 : en:19. "Mrs. Salinger?" 19
01:23:02.477 : en:20. An Abrupt Audition 20
01:28:19.295 : en:21. The Anesthetist 21
01:30:45.648 : en:22. I'd Like To Meet Mrs. Salinger." 22
01:33:38.278 : en:23. The Shocked Nurse Verbeck 23
01:38:07.964 : en:24. "I Have Two Wives!" 24
01:39:19.869 : en:25. It's A Girl 25
01:41:41.927 : en:26. The Wives' Decision 26
01:48:15.571 : en:27. Visiting Day 27
01:53:24.255 : en:28. The Right Moment 28

скриншот   скриншот   скриншот   скриншот   скриншот  

pb.wtf



Скачать Микки и Мод через торрент http://pic1.kartinco.top/images/12/ii8i3.jpg Скачать фильм Микки и Мод через торрент бесплантно в хорошем качестве Описание: Ведущий популярного телевизионного шоу Роб Сэленджер женат на Микки. Но из-за её плотного рабочего графика супругам очень редко ... 10 10 1
Торрент: Зарегистрирован [2020-08-29 13:05] · скачан: 7 раз
Статус: √ проверено
Размер: 10.82 GB
Как cкачать? Как скачать Микки и Мод через торрент | qTorrent

28-11-2019 20:33  

Отключить всю рекламу на сайте

    Дорогой пользователь! Огромная просьба, поблагодарите релизера, оцените раздачу и оставьте свои комментарий, если Вы скачали Микки и Мод через торрент бесплатно! Внесите свою лепту в развитие PiratBit!
    Комментировать посты могут только пользователи прошедшие не сложную регистрацию
    Показать сообщения:    

    Микки и Мод через торрент
    Скачать бесплатно Микки и Мод
    Микки и Мод скачать торрент
    Микки и Мод смотреть онлайн
    Cкачать фильм Микки и Мод бесплатно
    Микки и Мод скачать торрент в хорошем качестве
    Микки и Мод смотреть онлайн бесплатно в хорошем качестве


    Вы не можете начинать темы
    Вы не можете отвечать на сообщения
    Вы не можете редактировать свои сообщения
    Вы не можете удалять свои сообщения
    Вы не можете голосовать в опросах
    Вы не можете прикреплять файлы к сообщениям
    Вы можете скачивать файлы