2 сезон

iTunes

MVO

1

2 сезон

iTunes

iTunes

1 сезон

RePack

30

Новинка

ВАЖНО

ИГРА 18+

pack

RePack

MK11
pack

Легкие деньги

RePack

jed

RePack

fifa19

RePack

RDR2

RePack

NEED FOR SPEED™ PAYBACK

4 сезон

9 сезон

Бесстыжие 9 сезон

Все сериалы

все сериалы на PB.wtf

RePack

FAR CRY 5

Anonymous, добрый день, мы не успеваем собрать деньги на оплату серверов за декабрь и январь, помогите нам пожалуйста в это трудное время. В качестве благодарности мы отключим Вам всю рекламу на сайте (укажите свой ник в строку Ваше имя)!

×
  
Magnet ссылка

В ожидании варваров / Waiting for the Barbarians (Сиро Герра) [2019, Драма, BDRip 720p] DUB [iTunes] pb.wtf

В ожидании варваров через торрент pb.wtf

Размер: 4.07 GB | Добавлен: 4 мес. 23 д. назад | Торрент скачан:82 раза
Скачать  

30-08-2020 07:01 В ожидании варваров Скачать торрент  

В ожидании варваров | Waiting for the Barbarians
Год выпуска: 2019
Страна: США, Италия
Студия: Iervolino Entertainment, Ithaca Pictures
Жанр: Драма
Продолжительность: 01:53:25
Перевод: Дублированное | iTunes
Субтитры: Русские (Forced, full), английские

Режиссер: Сиро Герра

rating

В ролях: Марк Райлэнс, Джонни Депп, Роберт Паттинсон, Гана Баярсайкан, Грета Скакки, Давид Денсик, Сэм Рид, Гарри Меллинг, Билл Милнер, Далхсурен Гурсэд

Описание: В отдаленный южный город на границе неназванной Империи приезжает суровый полковник Джолл вместе со своими солдатами. Ему поручено пресечь малейшие попытки восстания коренных жителей пустыни, именуемых «варварами». Полковник берется за дело основательно и жестоко. Расследуя смутные слухи о готовящемся бунте, он общается с плененными туземцами только на языке насилия. Свидетелем пыток и расправ становится местный чиновник – обходительный и добродушный магистрат города, не видящий в коренном населении никакой угрозы. Сблизившись с одной из замученных пленниц, магистрат находит в себе силы выступить против имперской карательной машины...

Качество: BDRip 720p
Формат: MKV

Видео: MPEG-4 AVC, 1280x536, 4099 Kbit/s, 23.976 fps
Аудио #01: 48 kHz, AC3, 5.1, 384 Kbps | iTunes | RUS |
Аудио #02: 48 kHz, AC3, 5.1, 640 Kbps | Оригинал | ENG |
скриншот  скриншот  скриншот  скриншот  скриншот  

General
Unique ID : 111002126128757064190989234272420248832 (0x53823B5B30B1B4F5CC8B6292D8783D00)
Complete name : D:Video111Waiting.for.the.Barbarians.2019.BDRip.720p.seleZen.mkv
Format : Matroska
Format version : Version 4
File size : 4.07 GiB
Duration : 1 h 53 min
Overall bit rate : 5 124 kb/s
Movie name : Waiting for the Barbarians 2019 from селезень
Encoded date : UTC 2020-08-30 06:25:34
Writing application : mkvmerge v40.0.0 ('Old Town Road + Pony') 64-bit
Writing library : libebml v1.3.9 + libmatroska v1.5.2

Video
ID : 1
Format : AVC
Format/Info : Advanced Video Codec
Format profile : High@L4.1
Format settings : CABAC / 12 Ref Frames
Format settings, CABAC : Yes
Format settings, Reference : 12 frames
Codec ID : V_MPEG4/ISO/AVC
Duration : 1 h 53 min
Bit rate : 4 099 kb/s
Width : 1 280 pixels
Height : 536 pixels
Display aspect ratio : 2.40:1
Frame rate mode : Constant
Frame rate : 23.976 (24000/1001) FPS
Color space : YUV
Chroma subsampling : 4:2:0
Bit depth : 8 bits
Scan type : Progressive
Bits/(Pixel*Frame) : 0.249
Stream size : 3.25 GiB (80%)
Title : Encoded by seleZen
Writing library : x264 core 148 r2705kMod 3f5ed56
Encoding settings : cabac=1 / ref=12 / deblock=1:-2:-2 / analyse=0x3:0x133 / me=umh / subme=10 / psy=1 / fade_compensate=0.00 / psy_rd=1.00:0.00 / mixed_ref=1 / me_range=32 / chroma_me=1 / trellis=2 / 8x8dct=1 / cqm=0 / deadzone=21, 11 / fast_pskip=0 / chroma_qp_offset=-2 / threads=17 / lookahead_threads=2 / sliced_threads=0 / nr=0 / decimate=0 / interlaced=0 / bluray_compat=0 / constrained_intra=0 / fgo=0 / bframes=9 / b_pyramid=2 / b_adapt=2 / b_bias=0 / direct=3 / weightb=1 / open_gop=0 / weightp=2 / keyint=240 / keyint_min=23 / scenecut=40 / intra_refresh=0 / rc_lookahead=50 / rc=crf / mbtree=0 / crf=16.8000 / qcomp=0.60 / qpmin=0 / qpmax=51 / qpstep=4 / vbv_maxrate=50000 / vbv_bufsize=62500 / crf_max=0.0 / nal_hrd=none / filler=0 / ip_ratio=1.40 / pb_ratio=1.30 / aq=3:0.80
Language : English
Default : Yes
Forced : No

Audio #1
ID : 2
Format : AC-3
Format/Info : Audio Coding 3
Commercial name : Dolby Digital
Codec ID : A_AC3
Duration : 1 h 53 min
Bit rate mode : Constant
Bit rate : 384 kb/s
Channel(s) : 6 channels
Channel layout : L R C LFE Ls Rs
Sampling rate : 48.0 kHz
Frame rate : 31.250 FPS (1536 SPF)
Compression mode : Lossy
Stream size : 312 MiB (7%)
Title : iTunes
Language : Russian
Service kind : Complete Main
Default : Yes
Forced : Yes

Audio #2
ID : 3
Format : AC-3
Format/Info : Audio Coding 3
Commercial name : Dolby Digital
Codec ID : A_AC3
Duration : 1 h 53 min
Bit rate mode : Constant
Bit rate : 640 kb/s
Channel(s) : 6 channels
Channel layout : L R C LFE Ls Rs
Sampling rate : 48.0 kHz
Frame rate : 31.250 FPS (1536 SPF)
Compression mode : Lossy
Stream size : 520 MiB (12%)
Title : Original
Language : English
Service kind : Complete Main
Default : No
Forced : No

Text #1
ID : 4
Format : UTF-8
Codec ID : S_TEXT/UTF8
Codec ID/Info : UTF-8 Plain Text
Duration : 1 h 32 min
Bit rate : 0 b/s
Count of elements : 4
Stream size : 111 Bytes (0%)
Title : Forced
Language : Russian
Default : Yes
Forced : Yes

Text #2
ID : 5
Format : UTF-8
Codec ID : S_TEXT/UTF8
Codec ID/Info : UTF-8 Plain Text
Duration : 1 h 48 min
Bit rate : 47 b/s
Count of elements : 856
Stream size : 37.8 KiB (0%)
Title : Full
Language : Russian
Default : No
Forced : No

Text #3
ID : 6
Format : UTF-8
Codec ID : S_TEXT/UTF8
Codec ID/Info : UTF-8 Plain Text
Duration : 1 h 52 min
Bit rate : 31 b/s
Count of elements : 1037
Stream size : 25.6 KiB (0%)
Language : English
Default : No
Forced : No

Menu
00:00:00.000 : en:00:00:00.000
00:08:23.670 : en:00:08:23.670
00:17:46.440 : en:00:17:46.440
00:29:12.000 : en:00:29:12.000
00:38:37.440 : en:00:38:37.440
00:46:11.769 : en:00:46:11.769
00:57:13.221 : en:00:57:13.221
01:04:04.299 : en:01:04:04.299
01:13:22.982 : en:01:13:22.982
01:19:39.942 : en:01:19:39.942
01:30:58.620 : en:01:30:58.620
01:40:57.051 : en:01:40:57.051

pb.wtf



Скачать В ожидании варваров через торрент https://i112.fastpic.ru/big/2020/0829/f1/b3660ea1dfb726178a641528327062f1.jpg Скачать фильм В ожидании варваров через торрент бесплантно в хорошем качестве Описание: В отдаленный южный город на границе неназванной Империи приезжает суровый полковник Джолл вместе со своими солдатами. Ему ... 10 10 4
Торрент: Зарегистрирован [2020-08-30 07:01] · скачан: 82 раз
Статус: √ проверено
Размер: 4.07 GB
Как cкачать? Как скачать В ожидании варваров через торрент | UTorrent

% Раздел Тема Автор DL S | L
Фильмы 2019-2020 [DVDrip, WEB-DLRip, HDrip] (DUB, MVO) [ 2.13 GB ] В ожидании варваров / Waiting for the Barbarians [2019 BDRip] - Twi7ter Скачать
24 | 0
Фильмы 2019-2020 [DVDrip, WEB-DLRip, HDrip] (DUB, MVO) [ 1.41 GB ] В ожидании варваров / Waiting for the Barbarians [2019 BDRip] - Twi7ter Скачать
14 | 0
Фильмы [HD 720p, 1080p] (Хороший звук DUB, MVO) [ 14.14 GB ] В ожидании варваров / Waiting for the Barbarians [2019 BDRip 1080p] bober100 Скачать
1 | 0
Фильмы 2019-2020 [DVDrip, WEB-DLRip, HDrip] (DUB, MVO) [ 1.46 GB ] В ожидании варваров / Waiting for the Barbarians [2019 BDRip] bober100 Скачать
3 | 0
Фильмы 2019-2020 [DVDrip, WEB-DLRip, HDrip] (DUB, MVO) [ 2.41 GB ] В ожидании варваров / Waiting for the Barbarians [2019 BDRip-AVC] от wolf1245 & MediaBit Lithuania Скачать
1 | 0
Фильмы (Blu-ray, BD-Remux, HDDVD) [ 29.37 GB ] В ожидании варваров / Waiting for the Barbarians [2019 BD Remux 1080p] bober100 Скачать
1 | 0
Фильмы 2019-2020 [DVDrip, WEB-DLRip, HDrip] (DUB, MVO) [ 2.19 GB ] В ожидании варваров / Waiting for the Barbarians [2019 WEB-DLRip] +MVO [Mallorn Studio] bober100 Скачать
1 | 0

28-11-2019 20:33  

Отключить всю рекламу на сайте

    Дорогой пользователь! Огромная просьба, поблагодарите релизера, оцените раздачу и оставьте свои комментарий, если Вы скачали В ожидании варваров через торрент бесплатно! Внесите свою лепту в развитие PiratBit!
    Комментировать посты могут только пользователи прошедшие не сложную регистрацию
    Показать сообщения:    

    В ожидании варваров через торрент
    Скачать бесплатно В ожидании варваров
    В ожидании варваров скачать торрент
    В ожидании варваров смотреть онлайн
    Cкачать фильм В ожидании варваров бесплатно
    В ожидании варваров скачать торрент в хорошем качестве
    В ожидании варваров смотреть онлайн бесплатно в хорошем качестве


    Вы не можете начинать темы
    Вы не можете отвечать на сообщения
    Вы не можете редактировать свои сообщения
    Вы не можете удалять свои сообщения
    Вы не можете голосовать в опросах
    Вы не можете прикреплять файлы к сообщениям
    Вы можете скачивать файлы