Ссылка на приватное зеркало нашего сайта всего за 1$. Внимание количество ограничено!!!

2 сезон

iTunes

1 сезон

1

iTunes

iTunes

iTunes

1 сезон

RePack

30

ИГРА 18+

pack

ВАЖНО

!!Акция!!

Alien_RageХит недели

RePack

MK11
pack

Забери бонус

RePack

jed

!!Акция!!

Alien_Rage

RePack

fifa19

RePack

Assassins Creed: Odyssey

RePack

NEED FOR SPEED™ PAYBACK

4 сезон

9 сезон

Бесстыжие 9 сезон

Все сериалы

все сериалы на PB.wtf

RePack

FAR CRY 5
  

Вижу-Знаю / Сезоны: 1 / Серии: 1-24 из 24 (Эльдар Салаватов, Алексей Луканев) [2016, детектив, криминал, WEB-DL 1080p] pb.wtf

Вижу-Знаю через торрент pb.wtf

Размер: 35.96 GB | Добавлен: 1 мес. 29 д. назад | Торрент скачан:7 раз
Скачать  

30-08-2020 09:08 Вижу-Знаю Скачать торрент  

Вижу-Знаю
Год выпуска: 2016
Страна: Россия
Студия: Киностудия "Медведь"
Жанр: детектив, криминал
Продолжительность: ~ 00:45:00 серия
Перевод: Не требуется
Субтитры: отсутствуют

Режиссер: Эльдар Салаватов, Алексей Луканев

rating

В ролях: Сергей Горобченко, Анна Слю, Руслан Ягудин, Николай Ковбас, Максим Щёголев, Сергей Шнырёв, Александр Хованский (II), Денис Дружинин, Ольга Михайлова (II), Алексей Викторов, Александр Курицын, Виктор Фалалеев, Дмитрий Янышевский, Алексей Черничкин, Александр Ильин (III), Михаил Куряев, Пётр Рабчевский, Екатерина Буйлова, Анна Галлямова, Юлия Юрченко, Артём Манукян, Вадим Ситников, Роман Синицын, Елена Полякова, Евгения Шипова, Александра Мельник, Валерий Панков, Дмитрий Готсдинер, Дмитрий Титов, Анатолий Бледный, Анастасия Ричи, Андрей Харыбин, Роман Степенский, Сергей Колесников (II), Андрей Зубков, Татьяна Косач-Брындина, Антон Афанасьев, Мила Макарова, Мурат Шевлоков, Владимир Довжик, Екатерина Молоховская, Ольга Молочная, Александр Катин (старший), Роман Квашнин, Вадим Померанцев, Светлана Рубан, Денис Синявский, Сергей Греков, Ксения Кастор, Кирилл Ковбас

Описание: Героиня сериала – Жанна Кузнецова, профессиональный практикующий психолог. Она с детства обладает даром угадывать характер, поведенческие особенности и даже социальный статус людей по лицу. Девушка увлеклась физиогномикой и довела свое мастерство до совершенства. Жанна поступает на работу в оперативно-розыскной отдел под прямым ведением одного из заместителей главы МВД и занимающемся перепроверкой «висяков» и «жалобных» дел. Коллеги поначалу принимают ее с недоверием, даже начальник уголовного отдела Леонид Катаев с ходу заявляет: «Физиогномика – это псевдонаука». Но благодаря своей проницательности, героиня быстро становится незаменимым напарником полицейских в раскрытии сложнейших преступлений. Ограбление ювелирного магазина, покушение на убийство известного адвоката, кража драгоценностей дома Медичи – в любом деле Жанна сможет отыскать следы, оставленные преступником. А помогать ей в этом будут следователи-оперативники – майор Катаев, капитан МихМих и другие. Команде предстоит разобраться с общим противником – бизнесменом Даниловым. Харизматичный манипулятор, он, как и Жанна, гениально читает человека как открытую книгу, но свой талант использует только в корыстных целях. Редкий дар приносит героине и страдания. Жанна не знает, что же случилось с ее родителями и почему ее мучают страшные головные боли. Личная жизнь героини не складывается. Ее обаяние и красота притягивают мужчин. Но трудно построить счастье, когда видишь людей насквозь.

Качество: WEB-DL 1080p
Формат: MKV

Видео: MPEG-4 (AVC), 1920х1072, 25 fps, ~ 4500 kbps, ~ 0.09 bit/pixel
Аудио: AC3, 44.1 kHz, 2 ch, 192 Kbps
скриншот  скриншот  скриншот  скриншот  скриншот  

General
Unique ID : 247706619496157714202395159321616577753 (0xBA5A8F415C0F7C4A8F05AA1A2ECBF4D9)
Complete name : Вижу-знаю (01 сер.) - web-dl1080p.mkv
Format : Matroska
Format version : Version 2
File size : 1.49 GiB
Duration : 45 min 40 s
Overall bit rate mode : Variable
Overall bit rate : 4 676 kb/s
Encoded date : UTC 2020-08-26 20:08:38
Writing application : mkvmerge v7.8.0 ('River Man') 32bit built on Apr 3 2015 12:11:22
Writing library : libebml v1.3.1 + libmatroska v1.4.2

Video
ID : 1
Format : AVC
Format/Info : Advanced Video Codec
Format profile : High@L4
Format settings : CABAC / 1 Ref Frames
Format settings, CABAC : Yes
Format settings, Reference : 1 frame
Format settings, GOP : M=1, N=50
Codec ID : V_MPEG4/ISO/AVC
Duration : 45 min 40 s
Bit rate mode : Variable
Bit rate : 4 500 kb/s
Width : 1 920 pixels
Height : 1 072 pixels
Display aspect ratio : 16:9
Frame rate mode : Constant
Frame rate : 25.000 FPS
Color space : YUV
Chroma subsampling : 4:2:0
Bit depth : 8 bits
Scan type : Progressive
Bits/(Pixel*Frame) : 0.087
Stream size : 1.43 GiB (96%)
Default : Yes
Forced : No

Audio
ID : 2
Format : AC-3
Format/Info : Audio Coding 3
Commercial name : Dolby Digital
Codec ID : A_AC3
Duration : 45 min 40 s
Bit rate mode : Constant
Bit rate : 192 kb/s
Channel(s) : 2 channels
Channel layout : L R
Sampling rate : 44.1 kHz
Frame rate : 28.711 FPS (1536 SPF)
Compression mode : Lossy
Stream size : 62.7 MiB (4%)
Service kind : Complete Main
Default : Yes
Forced : No

pb.wtf



Скачать Вижу-Знаю через торрент http://s017.radikal.ru/i416/1607/54/ed94f6b91590.jpg Скачать фильм Вижу-Знаю через торрент бесплантно в хорошем качестве Описание: Героиня сериала – Жанна Кузнецова, практикующий психолог. Она с детства обладает даром угадывать характер, ... 10 10 2
Торрент: Зарегистрирован [2020-08-30 09:08] · скачан: 7 раз
Статус: √ проверено
Размер: 35.96 GB
Как cкачать? Как скачать Вижу-Знаю через торрент | qTorrent

% Раздел Тема Автор DL S | L
Наши сериалы [ 37.34 GB ] Вижу-Знаю / Сезоны: 1 / Серии: 1-24 из 24 [2016 HDTVRip 720p] bober100 Скачать
2 | 0
Наши сериалы [ 12.89 GB ] Вижу-Знаю / Сезоны: 1 / Серии: 1-24 из 24 [2016 HDTVRip] bober100 Скачать
2 | 0
Наши сериалы [ 63.24 GB ] Вижу-Знаю / Сезоны: 1 / Серии: 1-24 из 24 [2016 HDTV 1080i] bober100 Скачать
1 | 0

28-11-2019 20:33  

Отключить всю рекламу на сайте

    Дорогой пользователь! Огромная просьба, поблагодарите релизера, оцените раздачу и оставьте свои комментарий, если Вы скачали Вижу-Знаю через торрент бесплатно! Внесите свою лепту в развитие PiratBit!
    Комментировать посты могут только пользователи прошедшие не сложную регистрацию
    Показать сообщения:    

    Вижу-Знаю через торрент
    Скачать бесплатно Вижу-Знаю
    Вижу-Знаю скачать торрент
    Вижу-Знаю смотреть онлайн
    Cкачать фильм Вижу-Знаю бесплатно
    Вижу-Знаю скачать торрент в хорошем качестве
    Вижу-Знаю смотреть онлайн бесплатно в хорошем качестве


    Вы не можете начинать темы
    Вы не можете отвечать на сообщения
    Вы не можете редактировать свои сообщения
    Вы не можете удалять свои сообщения
    Вы не можете голосовать в опросах
    Вы не можете прикреплять файлы к сообщениям
    Вы можете скачивать файлы