Ссылка на приватное зеркало нашего сайта всего за 1$. Внимание количество ограничено!!!

2 сезон

iTunes

1 сезон

1

iTunes

iTunes

iTunes

1 сезон

RePack

30

ИГРА 18+

pack

ВАЖНО

!!Акция!!

Alien_RageХит недели

RePack

MK11
pack

Забери бонус

RePack

jed

!!Акция!!

Alien_Rage

RePack

fifa19

RePack

Assassins Creed: Odyssey

RePack

NEED FOR SPEED™ PAYBACK

4 сезон

9 сезон

Бесстыжие 9 сезон

Все сериалы

все сериалы на PB.wtf

RePack

FAR CRY 5
  

Исполнитель / Executor (Мозико Уинд) [2017, Tриллер, WEB-DL 1080p] MVO [Creative Arts Media] - ExKinoRay pb.wtf

Исполнитель через торрент pb.wtf

Раздают: 9 [ 0 KB/s ]
Размер: 4.34 GB | Добавлен: 1 мес. 22 д. назад | Торрент скачан:73 раза
Скачать  

31-08-2020 04:33 Исполнитель Скачать торрент  

Наименование: Исполнитель
Оригинальное наименование: Executor
Год выпуска: 2017
Произведено: США, Wind Productions, McFadden Family Films
Категория: боевик
Режиссер постановщик: Мозико Уинд
В главных ролях: Марк МакФедден, Пол Сорвино, Миша Бартон, Роберт Миано, Aiden Wind, Эрик Робертс, Мика Фицджералд, Эмии Конн, Джеффри Джеймс Липпольд,

О фильме: Наемный убийца обращается к священнослужителю, в надежде получить искупление за содеянное в жизни. Святой Отец дает ему несколько советов, но главный герой не слишком придерживается их в последующем. Он продолжает исполнять заказы. В ходе исполнения очередного убийства, герой ввязывается в опасную передрягу. Он спасает ребенка, что делает его мишенью для крупного мафиозного клана. Он перешел дорогу влиятельному авторитету, не прощающему такое. Теперь нашему герою предстоит спасать не только свою жизнь, но и мальчишку, который также попал под прицел...

rating

Страна: США
Студия: Wind Productions, McFadden Family Films
Продолжительность: 01:33:25
Перевод: Профессиональный многоголосый (по заказу Creative Arts Media)

Формат: MKV
Качество: WEB-DL 1080p
Видео: MPEG-4 AVC, 1920x800 (2.40:1), 23.976 fps, 6097 Kbps, 0.166 bit/pixel
Аудио #01: 48 kHz, AC3, 2.0, 192 Kbps | MVO | RUS |
Аудио #02: 48 kHz, Е-AC3, 2.0, 224 Kbps | Оригинал | ENG |
Субтитры: Aнглийские
General
Unique ID : 235595464255096123847635408566428932331 (0xB13E09332BFD58FF9D31D17BC3F898EB)
Complete name : F:\Executor.2017.1080p.AMZN.WEB-DL.ExKinoRay.mkv
Format : Matroska
Format version : Version 2
File size : 4.34 GiB
Duration : 1 h 33 min
Overall bit rate : 6 645 kb/s
Movie name : Executor 2017 from ExKinoRay
Encoded date : UTC 2020-08-30 22:30:19
Writing application : mkvmerge v5.6.0 ('Kenya Kane') built on May 27 2012 16:44:04
Writing library : libebml v1.2.3 + libmatroska v1.3.0

Video
ID : 1
Format : AVC
Format/Info : Advanced Video Codec
Format profile : High@L4
Format settings, CABAC : Yes
Format settings, ReFrames : 4 frames
Codec ID : V_MPEG4/ISO/AVC
Duration : 1 h 33 min
Bit rate mode : Constant
Bit rate : 6 097 kb/s
Nominal bit rate : 10 000 kb/s
Width : 1 920 pixels
Height : 800 pixels
Display aspect ratio : 2.40:1
Frame rate mode : Constant
Frame rate : 23.976 (24000/1001) FPS
Color space : YUV
Chroma subsampling : 4:2:0
Bit depth : 8 bits
Scan type : Progressive
Bits/(Pixel*Frame) : 0.166
Stream size : 3.98 GiB (92%)
Default : Yes
Forced : No
Color range : Limited
Color primaries : BT.709
Transfer characteristics : BT.709
Matrix coefficients : BT.709

Audio #1
ID : 2
Format : AC-3
Format/Info : Audio Coding 3
Mode extension : CM (complete main)
Format settings, Endianness : Big
Codec ID : A_AC3
Duration : 1 h 33 min
Bit rate mode : Constant
Bit rate : 192 kb/s
Channel(s) : 2 channels
Channel positions : Front: L R
Sampling rate : 48.0 kHz
Frame rate : 31.250 FPS (1536 spf)
Compression mode : Lossy
Stream size : 128 MiB (3%)
Title : MVO
Language : Russian
Default : Yes
Forced : No

Audio #2
ID : 3
Format : E-AC-3
Format/Info : Audio Coding 3
Format settings, Endianness : Big
Codec ID : A_EAC3
Duration : 1 h 33 min
Bit rate mode : Constant
Bit rate : 224 kb/s
Channel(s) : 2 channels
Channel positions : Front: L R
Sampling rate : 48.0 kHz
Frame rate : 187.500 FPS (256 spf)
Compression mode : Lossy
Stream size : 150 MiB (3%)
Language : English
Default : No
Forced : No

Text #1
ID : 4
Format : UTF-8
Codec ID : S_TEXT/UTF8
Codec ID/Info : UTF-8 Plain Text
Language : English
Default : No
Forced : No

Text #2
ID : 5
Format : UTF-8
Codec ID : S_TEXT/UTF8
Codec ID/Info : UTF-8 Plain Text
Title : SDH
Language : English
Default : No
Forced : No


Релиз от:

Автор релиза: pb.wtf



Скачать Исполнитель через торрент http://s019.radikal.ru/i637/1708/5a/278633cb2df0.jpg Скачать фильм Исполнитель через торрент бесплантно в хорошем качестве О фильме: Наемный убийца обращается к священнослужителю, в надежде получить искупление за содеянное в жизни. Святой Отец дает ему несколько ... 10 10 4
Info! Золотая раздача, скачанное не засчитывается.
Торрент: Зарегистрирован [2020-08-31 04:33] · скачан: 73 раз
Статус: T временная
Размер: 4.34 GB
Как cкачать? Как скачать Исполнитель через торрент | qTorrent

28-11-2019 20:33  

Отключить всю рекламу на сайте

01-09-2020 13:33 Исполнитель Скачать торрент  

Автор раздачи ? Ты определись фильм какого года 2017 или 2019 ?pb.wtf



    Дорогой пользователь! Огромная просьба, поблагодарите релизера, оцените раздачу и оставьте свои комментарий, если Вы скачали Исполнитель через торрент бесплатно! Внесите свою лепту в развитие PiratBit!
    Комментировать посты могут только пользователи прошедшие не сложную регистрацию
    Показать сообщения:    

    Исполнитель через торрент
    Скачать бесплатно Исполнитель
    Исполнитель скачать торрент
    Исполнитель смотреть онлайн
    Cкачать фильм Исполнитель бесплатно
    Исполнитель скачать торрент в хорошем качестве
    Исполнитель смотреть онлайн бесплатно в хорошем качестве


    Вы не можете начинать темы
    Вы не можете отвечать на сообщения
    Вы не можете редактировать свои сообщения
    Вы не можете удалять свои сообщения
    Вы не можете голосовать в опросах
    Вы не можете прикреплять файлы к сообщениям
    Вы можете скачивать файлы