Ссылка на приватное зеркало нашего сайта всего за 1$. Внимание количество ограничено!!!

2 сезон

iTunes

1 сезон

1

2 сезон

2 сезон

iTunes

1 сезон

RePack

30

Ultimate

ВАЖНО

ИГРА 18+

pack

RePack

MK11
pack

Забери бонус

RePack

jed

!!Акция!!

Alien_Rage

RePack

fifa19

RePack

Assassins Creed: Odyssey

RePack

NEED FOR SPEED™ PAYBACK

4 сезон

9 сезон

Бесстыжие 9 сезон

Все сериалы

все сериалы на PB.wtf

RePack

FAR CRY 5
  

Кровавый крюк / Blood Hook (Джим Маллон) [1986, ужасы, комедия, BDRemux 1080p] [VO] (Unrated) pb.wtf

Кровавый крюк через торрент pb.wtf

Размер: 28.48 GB | Добавлен: 2 мес. 24 д. назад | Торрент скачан:6 раз
Скачать  

31-08-2020 08:33 Кровавый крюк Скачать торрент  

Кровавый крюк / Blood Hook

Год выхода: 1986
Жанр: ужасы, комедия
Страна: США
Продолжительность: 01:50:59
Перевод: любительский (одноголосый закадровый) Вячеслав Котов
Cубтитры: русские (forced), английские (SDH)

Режиссер: Джим Маллон

В ролях: Марк Джейкобс, Лиза Джейн Тодд, Патрик Данц, Сара Хаузер, Кристофер Уайтинг, Дон Уинтерс, Пол Дрэйк, Билл Лори, Дэйл Данхэм и др.

Описание: На каникулах пятеро студентов решают принять участие в конкурсе рыболовов, не подозревая, что в здешних местах завёлся не совсем обычный маньяк…

rating

Качество: BDRemux 1080p
Формат: MKV
Видео: MPEG-4 AVC Video / 34870 kbps / 1080p / 23.976 fps / 16:9 / High Profile 4.1
Аудио 1: Russian / AC-3 / 2.0 / 48 kHz / 192 kbps / 16-bit
Аудио 2: English / DTS-HD Master Audio / 1.0 / 96 kHz / 1677 kbps / 24-bit (DTS Core: 1.0 / 48 kHz / 768 kbps / 24-bit)
General

Unique ID : 34667259657756008786834163706821925131 (0x1A14ABDD5CC57ADA92C03E7B47ACD90B)

Complete name : Blood.Hook.1986.Unrated.Vinegar.Syndrome.BDRemux.1080p.mkv

Format : Matroska

Format version : Version 4 / Version 2

File size : 28.5 GiB

Duration : 1 h 50 min

Overall bit rate mode : Variable

Overall bit rate : 36.7 Mb/s

Encoded date : UTC 2020-08-31 07:26:05

Writing application : mkvmerge v49.0.0 ('Sick Of Losing Soulmates') 32-bit

Writing library : libebml v1.4.0 + libmatroska v1.6.1

Video

ID : 1

Format : AVC

Format/Info : Advanced Video Codec

Format profile : High@L4.1

Format settings, CABAC : Yes

Format settings, RefFrames : 3 frames

Codec ID : V_MPEG4/ISO/AVC

Duration : 1 h 50 min

Bit rate mode : Variable

Bit rate : 35.0 Mb/s

Maximum bit rate : 40.0 Mb/s

Width : 1 920 pixels

Height : 1 080 pixels

Display aspect ratio : 16:9

Frame rate mode : Constant

Frame rate : 23.976 (24000/1001) FPS

Standard : NTSC

Color space : YUV

Chroma subsampling : 4:2:0

Bit depth : 8 bits

Scan type : Progressive

Bits/(Pixel*Frame) : 0.704

Stream size : 27.0 GiB (95%)

Writing library : x264pro - Adobe CS Exporter Plug-in

Encoding settings : cabac=1 / ref=4 / deblock=1:-1:-1 / analyse=0x3:0x133 / me=umh / subme=10 / psy=1 / psy_rd=1.00:0.15 / mixed_ref=1 / me_range=24 / chroma_me=1 / trellis=2 / 8x8dct=1 / cqm=0 / deadzone=21,11 / fast_pskip=1 / chroma_qp_offset=-3 / threads=12 / lookahead_threads=2 / sliced_threads=0 / slices=4 / nr=0 / decimate=1 / interlaced=0 / bluray_compat=1 / constrained_intra=0 / bframes=3 / b_pyramid=1 / b_adapt=2 / b_bias=0 / direct=3 / weightb=1 / open_gop=0 / weightp=1 / keyint=24 / keyint_min=1 / scenecut=40 / intra_refresh=0 / rc_lookahead=24 / rc=2pass / mbtree=1 / bitrate=35000 / ratetol=1.0 / qcomp=0.60 / qpmin=0 / qpmax=69 / qpstep=4 / cplxblur=20.0 / qblur=0.5 / vbv_maxrate=40000 / vbv_bufsize=30000 / nal_hrd=vbr / ip_ratio=1.40 / aq=1:1.00

Default : Yes

Forced : No

Color range : Limited

Color primaries : BT.709

Transfer characteristics : BT.709

Matrix coefficients : BT.709

Audio #1

ID : 2

Format : AC-3

Format/Info : Audio Coding 3

Format settings, Endianness : Big

Codec ID : A_AC3

Duration : 1 h 50 min

Bit rate mode : Constant

Bit rate : 192 kb/s

Channel(s) : 2 channels

Channel positions : Front: L R

Sampling rate : 48.0 kHz

Frame rate : 31.250 FPS (1536 SPF)

Bit depth : 16 bits

Compression mode : Lossy

Stream size : 152 MiB (1%)

Title : Вячеслав Котов

Language : Russian

Service kind : Complete Main

Default : Yes

Forced : No

Audio #2

ID : 3

Format : DTS

Format/Info : Digital Theater Systems

Format profile : MA / Core

Mode : 16

Format settings, Endianness : Big

Codec ID : A_DTS

Duration : 1 h 50 min

Bit rate mode : Variable / Constant

Bit rate : 1 677 kb/s / 768 kb/s

Channel(s) : 1 channel

Channel positions : Front: C

Sampling rate : 96.0 kHz / 48.0 kHz

Frame rate : 93.750 FPS (512 SPF)

Bit depth : 24 bits

Compression mode : Lossless / Lossy

Stream size : 1.30 GiB (5%)

Language : English

Default : No

Forced : No

Text #1

ID : 4

Format : UTF-8

Codec ID : S_TEXT/UTF8

Codec ID/Info : UTF-8 Plain Text

Duration : 1 h 20 min

Bit rate : 27 b/s

Count of elements : 332

Stream size : 16.3 KiB (0%)

Language : Russian

Default : Yes

Forced : No

Text #2

ID : 5

Format : UTF-8

Codec ID : S_TEXT/UTF8

Codec ID/Info : UTF-8 Plain Text

Duration : 1 h 50 min

Bit rate : 73 b/s

Count of elements : 2166

Stream size : 59.7 KiB (0%)

Title : SDH

Language : English

Default : No

Forced : No

Menu

00:00:00.000 : :Chapter 01

00:20:59.258 : :Chapter 02

00:41:08.466 : :Chapter 03

01:04:06.342 : :Chapter 04

01:22:49.464 : :Chapter 05

01:40:52.046 : :Chapter 06
скриншот  скриншот  скриншот  скриншот  
pb.wtf



Скачать Кровавый крюк через торрент https://img16.lostpic.net/2019/12/12/98d67457108115788fa7e0ccacc47f41.png Скачать фильм Кровавый крюк через торрент бесплантно в хорошем качестве Описание: На каникулах пятеро студентов решают принять участие в конкурсе рыболовов, не подозревая, что в здешних местах завёлся не совсем ... 10 10 2
Торрент: Зарегистрирован [2020-08-31 08:33] · скачан: 6 раз
Статус: √ проверено
Размер: 28.48 GB
Как cкачать? Как скачать Кровавый крюк через торрент | qTorrent

28-11-2019 20:33  

Отключить всю рекламу на сайте

    Дорогой пользователь! Огромная просьба, поблагодарите релизера, оцените раздачу и оставьте свои комментарий, если Вы скачали Кровавый крюк через торрент бесплатно! Внесите свою лепту в развитие PiratBit!
    Комментировать посты могут только пользователи прошедшие не сложную регистрацию
    Показать сообщения:    

    Кровавый крюк через торрент
    Скачать бесплатно Кровавый крюк
    Кровавый крюк скачать торрент
    Кровавый крюк смотреть онлайн
    Cкачать фильм Кровавый крюк бесплатно
    Кровавый крюк скачать торрент в хорошем качестве
    Кровавый крюк смотреть онлайн бесплатно в хорошем качестве


    Вы не можете начинать темы
    Вы не можете отвечать на сообщения
    Вы не можете редактировать свои сообщения
    Вы не можете удалять свои сообщения
    Вы не можете голосовать в опросах
    Вы не можете прикреплять файлы к сообщениям
    Вы можете скачивать файлы