2 сезон

iTunes

MVO

1

2 сезон

iTunes

iTunes

1 сезон

RePack

30

Ultimate

ВАЖНО

ИГРА 18+

pack

RePack

MK11
pack

Легкие деньги

RePack

jed

RePack

fifa19

RePack

RDR2

RePack

NEED FOR SPEED™ PAYBACK

4 сезон

9 сезон

Бесстыжие 9 сезон

Все сериалы

все сериалы на PB.wtf

RePack

FAR CRY 5

Anonymous, доброй ночи, мы не успеваем собрать деньги на оплату серверов за декабрь и январь, помогите нам пожалуйста в это трудное время. В качестве благодарности мы отключим Вам всю рекламу на сайте (укажите свой ник в строку Ваше имя)!

×
  
Magnet ссылка

Отступники / The Departed (Мартин Скорсезе) [2006 г., триллер, драма, криминал, детектив, Hybrid 720p / 60 FPS, Дубляж] (Open Matte) от R.G. HD-Films pb.wtf

Отступники через торрент pb.wtf

Раздают: 2 [ 0 KB/s ]
Размер: 6.49 GB | Добавлен: 4 мес. 21 д. назад | Торрент скачан:88 раз
Скачать  

31-08-2020 09:34 Отступники Скачать торрент  

Отступники / The Departed
Год выпуска: 2006
Страна: США
Жанр: триллер, драма, криминал, детектив
Продолжительность: 02:31:19
Перевод: Дубляж (Мосфильм-Мастер)
Субтитры: Russian, English

Режиссер: Мартин Скорсезе

Бюджет: $90 000 000
Премьера в мире: 26 сентября 2006

rating

В ролях: Леонардо ДиКаприо, Мэтт Дэймон, Джек Николсон, Марк Уолберг, Мартин Шин, Рэй Уинстон, Вера Фармига, Энтони Андерсон, Алек Болдуин, Кевин Корригэн

Описание: Два лучших выпускника полицейской академии оказались по разные стороны баррикады: один из них — агент мафии в рядах правоохранительных органов, другой — «крот», внедрённый в мафию. Каждый считает своим долгом обнаружить и уничтожить противника, но постоянная жизнь в искажённых реалиях меняет внутренний мир героев.

Качество: Hybrid 720p / 60 FPS
Формат: MKV
Видео кодек: H.264
Аудио кодек: AC3
Видео: x264, 1280 x 720 ( 16:9 ), 5754 kbps, 60,000 fps, ( 0.104 bpp)
Аудио#1: Русский, AC-3, 48.0 KHz, 6 ch, 384 Kbps Dub (Мосфильм-Мастер)
Релиз от:

скриншот   скриншот   скриншот   скриншот   скриншот  Автор рипа: slaventi-69
x264 [info]: frame I:2733 Avg QP:16.04 size:111238
x264 [info]: frame P:139075 Avg QP:16.85 size: 24576
x264 [info]: frame B:402388 Avg QP:18.62 size: 6962
x264 [info]: consecutive B-frames: 4.0% 5.1% 9.0% 9.7% 61.3% 10.9%


Общее
Уникальный идентификатор : 254954764672784247155257014961340933847 (0xBFCE806733F2B1AAA765B648169BE6D7)
Полное имя : F:\The.Departed.(2006).Hybrid.720p.(60 Fps).(Open Matte).mkv
Формат : Matroska
Версия формата : Version 4
Размер файла : 6,49 Гбайт
Продолжительность : 2 ч. 31 м.
Общий поток : 6142 Кбит/сек
Название фильма : Отступники / The Departed (2006) Hybrid 720p (60 Fps) | Open Matte
Дата кодирования : UTC 2020-08-31 08:46:23
Программа кодирования : mkvmerge v9.1.0 ('Little Earthquakes') 64bit
Библиотека кодирования : libebml v1.3.3 + libmatroska v1.4.4

Видео
Идентификатор : 1
Формат : AVC
Формат/Информация : Advanced Video Codec
Профиль формата : High@L4.1
Настройки формата : CABAC / 8 Ref Frames
Параметр CABAC формата : Да
Параметр RefFrames формата : 8 кадров
Идентификатор кодека : V_MPEG4/ISO/AVC
Продолжительность : 2 ч. 31 м.
Битрейт : 5754 Кбит/сек
Ширина : 1280 пикселей
Высота : 720 пикселей
Соотношение сторон : 16:9
Режим частоты кадров : Постоянный
Частота кадров : 60,000 кадров/сек
Цветовое пространство : YUV
Субдискретизация насыщенности : 4:2:0
Битовая глубина : 8 бит
Тип развёртки : Прогрессивная
Бит/(Пиксели*Кадры) : 0.104
Размер потока : 6,08 Гбайт (94%)
Заголовок : slaventi-69 ( R.G. HD-Films | 60 fps )
Библиотека кодирования : x264 core 130 r2273 b3065e6
Настройки программы : cabac=1 / ref=9 / deblock=1:-1:-1 / analyse=0x3:0x113 / me=umh / subme=9 / psy=1 / psy_rd=1.00:0.00 / mixed_ref=1 / me_range=32 / chroma_me=1 / trellis=2 / 8x8dct=1 / cqm=0 / deadzone=21,11 / fast_pskip=0 / chroma_qp_offset=-2 / threads=10 / lookahead_threads=4 / sliced_threads=0 / nr=0 / decimate=1 / interlaced=0 / bluray_compat=0 / constrained_intra=0 / bframes=5 / b_pyramid=1 / b_adapt=2 / b_bias=0 / direct=2 / weightb=1 / open_gop=0 / weightp=2 / keyint=600 / keyint_min=23 / scenecut=40 / intra_refresh=0 / rc=crf / mbtree=0 / crf=16.8 / qcomp=0.60 / qpmin=0 / qpmax=69 / qpstep=4 / ip_ratio=1.40 / pb_ratio=1.30 / aq=1:1.00
Язык : English
Default : Да
Forced : Нет

Аудио
Идентификатор : 2
Формат : AC-3
Формат/Информация : Audio Coding 3
Коммерческое название : Dolby Digital
Идентификатор кодека : A_AC3
Продолжительность : 2 ч. 31 м.
Вид битрейта : Постоянный
Битрейт : 384 Кбит/сек
Каналы : 6 каналов
Channel layout : L R C LFE Ls Rs
Частота : 48,0 КГц
Частота кадров : 31,250 кадров/сек (1536 SPF)
Битовая глубина : 16 бит
Метод сжатия : С потерями
Размер потока : 415 Мбайт (6%)
Заголовок : Dub (Мосфильм-Мастер)
Язык : Russian
ServiceKind/String : Complete Main
Default : Да
Forced : Нет

Текст #1
Идентификатор : 3
Формат : UTF-8
Идентификатор кодека : S_TEXT/UTF8
Идентификатор кодека/Информация : UTF-8 Plain Text
Продолжительность : 2 ч. 23 м.
Битрейт : 125 бит/сек
ElementCount : 2091
Размер потока : 132 Кбайт (0%)
Заголовок : R5
Язык : Russian
Default : Нет
Forced : Нет

Текст #2
Идентификатор : 4
Формат : UTF-8
Идентификатор кодека : S_TEXT/UTF8
Идентификатор кодека/Информация : UTF-8 Plain Text
Продолжительность : 2 ч. 23 м.
Битрейт : 124 бит/сек
ElementCount : 1947
Размер потока : 131 Кбайт (0%)
Заголовок : REN_313
Язык : Russian
Default : Нет
Forced : Нет

Текст #3
Идентификатор : 5
Формат : UTF-8
Идентификатор кодека : S_TEXT/UTF8
Идентификатор кодека/Информация : UTF-8 Plain Text
Продолжительность : 2 ч. 23 м.
Битрейт : 114 бит/сек
ElementCount : 1859
Размер потока : 121 Кбайт (0%)
Заголовок : sunny-sko
Язык : Russian
Default : Нет
Forced : Нет

Текст #4
Идентификатор : 6
Формат : UTF-8
Идентификатор кодека : S_TEXT/UTF8
Идентификатор кодека/Информация : UTF-8 Plain Text
Продолжительность : 2 ч. 23 м.
Битрейт : 70 бит/сек
ElementCount : 1905
Размер потока : 74,4 Кбайт (0%)
Заголовок : English
Язык : English
Default : Нет
Forced : Нет

Меню
00:00:00.000 : en:Start
00:05:03.636 : en:School's Out
00:08:52.532 : en:You're No Cop
00:14:56.061 : en:Serve the Commonwealth
00:19:11.817 : en:He's Jackie's Nephew
00:24:02.274 : en:Dignam Briefs the Girls
00:26:02.060 : en:Tipped Off, Ticked Off
00:30:07.972 : en:Impervious to Analysis
00:32:22.774 : en:Necessary Torture
00:37:13.397 : en:Two Guys From Providence
00:42:46.730 : en:May I Remind You
00:47:28.178 : en:Call Your Mother
00:51:23.747 : en:How Billy Feels
00:54:50.954 : en:Hang Tight for Me
00:59:44.080 : en:Call the Game
01:03:09.786 : en:No Tickee, No Laundry
01:07:46.228 : en:Relationship Ups and Downs
01:13:04.213 : en:If You Coulda
01:14:58.160 : en:Protected and Benumbed
01:19:28.597 : en:Real Vulnerability
01:22:45.293 : en:Take Care of Business
01:27:23.738 : en:Each Other's Trail
01:30:19.247 : en:Heavy Lies the Crown
01:36:33.287 : en:The One That Gets Out
01:39:31.632 : en:Tail on Queenan
01:43:48.388 : en:Taking the Fall
01:47:45.709 : en:Wrong Number
01:51:53.039 : en:Dead Guy's Phone
01:56:54.340 : en:Nation of Rats
02:00:53.412 : en:Sheffield Shootout
02:03:06.545 : en:Getting Frank
02:06:03.556 : en:Deleted
02:10:52.845 : en:Play Me Now
02:15:19.111 : en:Rats on a Rooftop
02:18:55.994 : en:The Departed
02:23:19.090 : en:Okay
02:24:45.677 : en:End Credits

Просьба к переливающим на другие сайты, в оформлении указывайте пожалуйста авторство группы R.G. HD-Films pb.wtf



Скачать Отступники через торрент http://s019.radikal.ru/i641/1210/b9/741a07ebf204.jpg Скачать фильм Отступники через торрент бесплантно в хорошем качестве Описание: Два лучших выпускника полицейской академии оказались по разные стороны баррикады: один из них — агент мафии в рядах ... 10 10 8
Info! Золотая раздача, скачанное не засчитывается.
Торрент: Зарегистрирован [2020-08-31 09:34] · скачан: 88 раз
Статус: √ проверено
Размер: 6.49 GB
Как cкачать? Как скачать Отступники через торрент | UTorrent

% Раздел Тема Автор DL S | L
Фильмы (BDRip, HDrip-AVC) (48-60 fps) [ 3.95 GB ] Отступники / The Departed [2006 BDRip-AVC 60fps Dub] от R.G. HD-Films Tiberiumsun69 Скачать
11 | 2
Фильмы 2006-2008 [ 2.18 GB ] Отступники / The Departed [2006 HDRip-AVC] DUB / от R.G. nICE Films Phoenix Скачать
1 | 0

28-11-2019 20:33  

Отключить всю рекламу на сайте

01-09-2020 02:07 Отступники Скачать торрент  

ваще крутой фильмpb.wtf



    Дорогой пользователь! Огромная просьба, поблагодарите релизера, оцените раздачу и оставьте свои комментарий, если Вы скачали Отступники через торрент бесплатно! Внесите свою лепту в развитие PiratBit!
    Комментировать посты могут только пользователи прошедшие не сложную регистрацию
    Показать сообщения:    

    Отступники через торрент
    Скачать бесплатно Отступники
    Отступники скачать торрент
    Отступники смотреть онлайн
    Cкачать фильм Отступники бесплатно
    Отступники скачать торрент в хорошем качестве
    Отступники смотреть онлайн бесплатно в хорошем качестве


    Вы не можете начинать темы
    Вы не можете отвечать на сообщения
    Вы не можете редактировать свои сообщения
    Вы не можете удалять свои сообщения
    Вы не можете голосовать в опросах
    Вы не можете прикреплять файлы к сообщениям
    Вы можете скачивать файлы