Всегда рабочее зеркало без VPN и Proxy просто перед .vidak.icu напиши любое слово или цифру, Пример http://ow1t.vidak.icu

MVO

2 сезон

2 сезон

1

1 сезон

iTunes

2 сезон

13

1 сезон

Распродажа

pack

Рекомендуем

Пиратка

30

ВАЖНО

RePack

MK11

RePack

jed

RePack

fifa19

RePack

RDR2

RePack

NEED FOR SPEED™ PAYBACK

Кинопоиск HD

6 сезон

 Острые козырьки 6 сезон

Все сериалы

все сериалы на PB.wtf

RePack

FAR CRY 5

Anonymous, нам критически не хватает 5601 руб. на оплату серверов и переферии за Апрель, помоги нам пожалуйста, вся надежда только на тебя. В благодарность мы отключим тебе всю рекламу на сайте!

×
  
Magnet ссылка

Поцелуй дракона / Kiss of the Dragon (Крис Наон) [2001, Боевик, триллер, драма, криминал, BDRip 1080p] [DUB+MVO+3xAVO] pb.wtf

Поцелуй дракона через торрент pb.wtf

Размер: 10.26 GB | Добавлен: 1 год 8 мес. назад | Торрент скачан:63 раза
Смотреть онлайн Поцелуй дракона | Скачать    Ребята, помогите собрать деньги на оплату серверов!!!

31-08-2020 14:15 Поцелуй дракона Скачать торрент  

Поцелуй дракона / Kiss of the DragonГод выпуска: 2001
Страна: Франция, США
Студия: 20th Century Fox Film Corporation, Canal+ [fr] , Current Entertainment, Europa Corp., Immortal Entertainment
Жанр: Боевик, триллер, драма, криминал
Продолжительность: 01:38:15
Перевод: Профессиональный дублированный, Профессиональный (многоголосый закадровый), авторский (одноголосый, закадровый)
Субтитры: Русские, английские (полные, SDH)

Режиссер: Крис Наон

В ролях: Джет Ли, Бриджит Фонда, Чеки Карио, Макс Райан, Рик Янг, Берт Квук, Лоуренс Эшли, Сирил Раффаэлли, Дидье Азулай, Джон Форджэм, Пол Баррет, Кэнтаро Юри Йамашита, Колин Принц, Венсан Гло, Винсент Вонг, Стефан Жако, Стефан Неле, Петер Сакон Ли, Изабель Дуовелье, Янник Деррьен, Франческа Диска, Таира, Давид Габисон, Бертран Ваинтроп, Ален Зеф, Николя Эро, Жан-Марк Хубер, Франк Тиоццо, Джон Мачко, Клод Брекот, Жан-Жорж Вонжериште, Франсуа Нгуйен, Жослин Исаак, Раймон Камвэн, Урфе Купаки, Грегори Галин, Александр Компан

Описание: Офицер китайской разведки приезжает из Гонконга в Париж, чтобы участвовать в опасной операции, цель которой - заманить в ловушку и взять с поличным крупного наркобарона. Но дела идут совершенно непредсказуемо. Герой попадает в двойную ловушку и становится подозреваемым в убийстве c неопровержимыми уликами против него. Его жизнь теперь зависит от того, сумеет ли он уйти от преследования и доказать свою невиновность.



Качество: BDRip 1080p
Формат: MKV
Видео: MPEG-4 AVC, 1920x812, 12000 Кбит/с, 23.976 fps
Аудио 1: Русский, AC3, 6 ch, 448 Кбит/с Дубляж Blu-Ray
Аудио 2: Русский, AC3, 6 ch, 384 Кбит/с Профессиональный (многоголосый закадровый)
Аудио 3: Русский, АС3, 6 ch, 640 Кбит/с Авторский (одноголосый, закадровый) А. Гаврилов
Аудио 4: Русский, АС3, 6 ch, 640 Кбит/с Авторский (одноголосый, закадровый) С. Визгунов
Аудио 5: Русский, АС3, 2 ch, 192 Кбит/с Авторский (одноголосый, закадровый) С. Рябов
Аудио 6: Английский, АС3, 6 ch, 640 Кбит/с Оригинал
Главы: Есть
x264 [info]: frame I:929 Avg QP:14.56 size:145391

x264 [info]: frame P:33311 Avg QP:16.27 size: 95633

x264 [info]: frame B:107120 Avg QP:18.17 size: 51531

Общее

Уникальный идентификатор : 233004062518069844079683868747488803915 (0xAF4AF33AD9D0F838A88A68889B6BBC4B)

Полное имя : J:фильмыПоцелуй Дракона 2001г. BDRip 1080p.mkv

Формат : Matroska

Версия формата : Version 2

Размер файла : 10,3 Гбайт

Продолжительность : 1 ч. 38 м.

Общий поток : 14,9 Мбит/сек

Название фильма : Поцелуй дракона 2001г. от mister.hats

Дата кодирования : UTC 2019-11-06 00:56:55

Программа кодирования : mkvmerge v5.8.0 ('No Sleep / Pillow') built on Sep 2 2012 15:37:04

Библиотека кодирования : libebml v1.2.3 + libmatroska v1.3.0

Видео

Идентификатор : 1

Формат : AVC

Формат/Информация : Advanced Video Codec

Профиль формата : High@L4.1

Настройки формата : CABAC / 5 Ref Frames

Параметр CABAC формата : Да

Параметр RefFrames формата : 5 кадров

Идентификатор кодека : V_MPEG4/ISO/AVC

Продолжительность : 1 ч. 38 м.

Битрейт : 12,0 Мбит/сек

Ширина : 1920 пикселей

Высота : 812 пикселей

Соотношение сторон : 2,35:1

Режим частоты кадров : Постоянный

Частота кадров : 23,976 (24000/1001) кадра/сек

Цветовое пространство : YUV

Субдискретизация насыщенности : 4:2:0

Битовая глубина : 8 бит

Тип развёртки : Прогрессивная

Бит/(Пиксели*Кадры) : 0.321

Размер потока : 8,03 Гбайт (78%)

Библиотека кодирования : x264 core 152 r2851kMod ba24899

Настройки программы : cabac=1 / ref=5 / deblock=1:-3:-3 / analyse=0x3:0x113 / me=umh / subme=11 / psy=1 / fade_compensate=0.00 / psy_rd=1.00:0.00 / mixed_ref=1 / me_range=48 / chroma_me=1 / trellis=2 / 8x8dct=1 / cqm=0 / deadzone=21,11 / fast_pskip=0 / chroma_qp_offset=-2 / threads=12 / lookahead_threads=2 / sliced_threads=0 / nr=0 / decimate=0 / interlaced=0 / bluray_compat=0 / constrained_intra=0 / bframes=9 / b_pyramid=2 / b_adapt=2 / b_bias=0 / direct=3 / weightb=1 / open_gop=0 / weightp=2 / keyint=240 / keyint_min=23 / scenecut=40 / intra_refresh=0 / rc_lookahead=40 / rc=2pass / mbtree=0 / bitrate=12000 / ratetol=1.0 / qcomp=0.60 / qpmin=0 / qpmax=39 / qpstep=4 / cplxblur=20.0 / qblur=0.5 / vbv_maxrate=50000 / vbv_bufsize=62500 / nal_hrd=none / filler=0 / ip_ratio=1.20 / pb_ratio=1.30 / aq=3:0.90

Язык : English

Default : Да

Forced : Нет

Цветовой диапазон : Limited

Основные цвета : BT.709

Характеристики трансфера : BT.709

Коэффициенты матрицы : BT.709

Аудио #1

Идентификатор : 2

Формат : AC-3

Формат/Информация : Audio Coding 3

Параметр Endianness формата : Big

Идентификатор кодека : A_AC3

Продолжительность : 1 ч. 38 м.

Вид битрейта : Постоянный

Битрейт : 448 Кбит/сек

Каналы : 6 каналов

Расположение каналов : Front: L C R, Side: L R, LFE

Частота : 48,0 КГц

Частота кадров : 31,250 кадров/сек (1536 SPF)

Битовая глубина : 16 бит

Метод сжатия : С потерями

Размер потока : 315 Мбайт (3%)

Заголовок : Дубляж Blu-Ray

Язык : Russian

Default : Да

Forced : Нет

Аудио #2

Идентификатор : 3

Формат : AC-3

Формат/Информация : Audio Coding 3

Параметр Endianness формата : Big

Идентификатор кодека : A_AC3

Продолжительность : 1 ч. 38 м.

Вид битрейта : Постоянный

Битрейт : 384 Кбит/сек

Каналы : 5 каналов

Расположение каналов : Front: L C R, Side: L R

Частота : 48,0 КГц

Частота кадров : 31,250 кадров/сек (1536 SPF)

Битовая глубина : 16 бит

Метод сжатия : С потерями

Размер потока : 270 Мбайт (3%)

Заголовок : Профессиональный (многоголосый закадровый)

Язык : Russian

Default : Нет

Forced : Нет

Аудио #3

Идентификатор : 4

Формат : AC-3

Формат/Информация : Audio Coding 3

Параметр Endianness формата : Big

Идентификатор кодека : A_AC3

Продолжительность : 1 ч. 38 м.

Вид битрейта : Постоянный

Битрейт : 640 Кбит/сек

Каналы : 6 каналов

Расположение каналов : Front: L C R, Side: L R, LFE

Частота : 48,0 КГц

Частота кадров : 31,250 кадров/сек (1536 SPF)

Битовая глубина : 16 бит

Метод сжатия : С потерями

Размер потока : 450 Мбайт (4%)

Заголовок : Авторский (одноголосый, закадровый) А. Гаврилов

Язык : Russian

Default : Нет

Forced : Нет

Аудио #4

Идентификатор : 5

Формат : AC-3

Формат/Информация : Audio Coding 3

Параметр Endianness формата : Big

Идентификатор кодека : A_AC3

Продолжительность : 1 ч. 38 м.

Вид битрейта : Постоянный

Битрейт : 640 Кбит/сек

Каналы : 6 каналов

Расположение каналов : Front: L C R, Side: L R, LFE

Частота : 48,0 КГц

Частота кадров : 31,250 кадров/сек (1536 SPF)

Битовая глубина : 16 бит

Метод сжатия : С потерями

Размер потока : 450 Мбайт (4%)

Заголовок : Авторский (одноголосый, закадровый) С. Визгунов

Язык : Russian

Default : Нет

Forced : Нет

Аудио #5

Идентификатор : 6

Формат : AC-3

Формат/Информация : Audio Coding 3

Параметр Endianness формата : Big

Идентификатор кодека : A_AC3

Продолжительность : 1 ч. 38 м.

Вид битрейта : Постоянный

Битрейт : 192 Кбит/сек

Каналы : 2 канала

Расположение каналов : Front: L R

Частота : 48,0 КГц

Частота кадров : 31,250 кадров/сек (1536 SPF)

Битовая глубина : 16 бит

Метод сжатия : С потерями

Размер потока : 135 Мбайт (1%)

Заголовок : Авторский (одноголосый, закадровый) С. Рябов

Язык : Russian

Default : Нет

Forced : Нет

Аудио #6

Идентификатор : 7

Формат : AC-3

Формат/Информация : Audio Coding 3

Параметр Endianness формата : Big

Идентификатор кодека : A_AC3

Продолжительность : 1 ч. 38 м.

Вид битрейта : Постоянный

Битрейт : 640 Кбит/сек

Каналы : 6 каналов

Расположение каналов : Front: L C R, Side: L R, LFE

Частота : 48,0 КГц

Частота кадров : 31,250 кадров/сек (1536 SPF)

Битовая глубина : 16 бит

Метод сжатия : С потерями

Размер потока : 450 Мбайт (4%)

Заголовок : Оригинал

Язык : English

Default : Нет

Forced : Нет

Текст #1

Идентификатор : 8

Формат : UTF-8

Идентификатор кодека : S_TEXT/UTF8

Идентификатор кодека/Информация : UTF-8 Plain Text

Заголовок : Full

Язык : Russian

Default : Нет

Forced : Нет

Текст #2

Идентификатор : 9

Формат : UTF-8

Идентификатор кодека : S_TEXT/UTF8

Идентификатор кодека/Информация : UTF-8 Plain Text

Заголовок : Full

Язык : English

Default : Нет

Forced : Нет

Текст #3

Идентификатор : 10

Формат : UTF-8

Идентификатор кодека : S_TEXT/UTF8

Идентификатор кодека/Информация : UTF-8 Plain Text

Заголовок : SDH

Язык : English

Default : Нет

Forced : Нет

Меню

00:00:00.000 : en:Main Titles

00:04:38.152 : en:Mr. Smith

00:10:41.765 : en:Welcome to Paris

00:16:30.906 : en:A Situation

00:24:25.839 : en:Double-Crossed

00:27:13.840 : en:Into the Fire

00:32:17.226 : en:Gare De L'est

00:43:15.342 : en:Our Best Man

00:51:37.802 : en:The Farmer's Daughter

00:57:39.455 : en:A Kind Person

01:04:31.909 : en:The Tour Boat Trip

01:07:27.835 : en:On the Run

01:11:29.118 : en:Help From Jessica

01:14:21.123 : en:A Tough Client

01:18:25.075 : en:The Witness

01:21:54.576 : en:Trust

01:28:48.531 : en:Jessica's Escape

01:31:53.341 : en:The Orphanage

01:33:24.598 : en:Liu Jian's Promise
скриншот  скриншот  скриншот  
pb.wtf



Скачать Поцелуй дракона через торрент http://c.radikal.ru/c37/1911/42/feba88cb3714.jpg Скачать, смотреть онлайн Поцелуй дракона бесплантно в хорошем качестве Описание: Офицер китайской разведки приезжает из а в Париж, чтобы участвовать в опасной операции, цель которой - заманить в ловушку ... 10 10 5
Info! Золотая раздача, скачанное не засчитывается.
Торрент: Зарегистрирован [2020-08-31 14:15] · скачан: 63 раз
Статус: √ проверено
Размер: 10.26 GB
Как cкачать? Как скачать Поцелуй дракона через торрент | UTorrent

% Раздел Тема Автор DL S | L
Фильмы (HD 720p, 1080p) (48-60 fps) [ 2.98 GB ] Поцелуй дракона / Kiss of the Dragon [2001 BDRip 720p / 60 FPS ] от R.G. HD-Films slaventi-69 Скачать
1 | 0
R.G. Resident & PiratVoice - Фильмы, Видео [ 376 MB ] Поцелуй дракона / Kiss of the Dragon [2001 HDRip | КПК ] DUB Cтрана Скачать
1 | 0
Фильмы [HD 720p, 1080p] (Хороший звук DUB, MVO) [ 4.35 GB ] Поцелуй Дракона / Kiss of the Dragon [2001 BDRip 720p] DUB+MVO+AVO Ворон Скачать
1 | 0
Фильмы с авторской озвучкой [ 1.46 GB ] Поцелуй дракона / Kiss of the Dragon [2001 HDRip] [AVO] killermax2013 Скачать
1 | 0
Фильмы 2001-2005 [ 1.45 GB ] Поцелуй дракона / Kiss of the Dragon [2001 BDRip] kostantin Скачать
1 | 0
Фильмы 2001-2005 [ 1.45 GB ] Поцелуй дракона / Kiss of the Dragon [2001 HDRip-AVC] DUB stalonе Скачать
1 | 0
Фильмы [HD 720p, 1080p] (Хороший звук DUB, MVO) [ 6.8 GB ] Поцелуй дракона / Kiss of the Dragon [2001 BDRip ] Flint3 Скачать
1 | 0

28-11-2019 20:33  

Отключить всю рекламу на сайте

    Дорогой пользователь! Огромная просьба, поблагодарите релизера, оцените раздачу и оставьте свои комментарий, если Вы скачали Поцелуй дракона через торрент бесплатно!
    Комментировать посты могут только пользователи прошедшие не сложную регистрацию
    Показать сообщения:    

    Поцелуй дракона через торрент
    Скачать бесплатно Поцелуй дракона
    Поцелуй дракона скачать торрент
    Поцелуй дракона смотреть онлайн
    Cкачать фильм Поцелуй дракона бесплатно
    Поцелуй дракона скачать торрент в хорошем качестве
    Поцелуй дракона смотреть онлайн бесплатно в хорошем качестве


    Вы не можете начинать темы
    Вы не можете отвечать на сообщения
    Вы не можете редактировать свои сообщения
    Вы не можете удалять свои сообщения
    Вы не можете голосовать в опросах
    Вы не можете прикреплять файлы к сообщениям
    Вы можете скачивать файлы