Ссылка на приватное зеркало нашего сайта всего за 1$. Внимание количество ограничено!!!

2 сезон

iTunes

1 сезон

1

iTunes

iTunes

iTunes

1 сезон

RePack

30

ИГРА 18+

pack

ВАЖНО

!!Акция!!

Alien_RageХит недели

RePack

MK11
pack

Забери бонус

RePack

jed

!!Акция!!

Alien_Rage

RePack

fifa19

RePack

Assassins Creed: Odyssey

RePack

NEED FOR SPEED™ PAYBACK

4 сезон

9 сезон

Бесстыжие 9 сезон

Все сериалы

все сериалы на PB.wtf

RePack

FAR CRY 5
  

Игра на выживание / Сезон: 1 / Серии: 1-12 из 12 (Карен Оганесян) [2020, Приключения, триллер, драма, SATRip] pb.wtf

Игра на выживание через торрент pb.wtf

Раздают: 6 [ 23 KB/s ] Качают: 6 [ 0 KB/s ]
Размер: 7.56 GB | Добавлен: 1 мес. 2 д. назад | Торрент скачан:139 раз
Скачать  

01-09-2020 00:28 Игра на выживание Скачать торрент  

Игра на выживание
Год выпуска: 2020
Страна: Россия
Выпущено: Амедиа Продакшн, KarGo Films по заказу телеканала ТНТ
Жанр: Приключения, триллер, драма
Продолжительность: ~ 00:50:00 серия
Перевод: Не требуется
Субтитры: отсутствуют

Режиссер: Карен Оганесян



В ролях: Александра Бортич, Алексей Чадов, Игорь Верник, Линда Лапиньш, Владимир Верёвочкин, Беник Аракелян, Анастасия Тодореску, Валерий Скорокосов, Юлия Волкова, Мария Кулик, Михаил Кремер, Илья Хвостиков, Дмитрий Кривошеев, Кристина Поли, Ульяна Лукина, Ирина Воронова, Дэвид Пилия, Дарья Макарова, Юрий Архангельский, Сергей Жарков, Андрей Филиппак, Никита Кологривый, Александр Марушев, Сергей Дьяков, Глеб Бочков, Андрей Быков, Алдар Когаев, Эрдэм Шагдуров

[b]Описание: Чем может обернуться обычное телевизионное реалити-шоу для его участников? 16 человек отправляются в дикую сибирскую тайгу, чтобы побороться за один миллион евро. Правила просты: никакой еды, личных вещей, электричества, связи и цивилизации на сотни километров вокруг. Победит тот, кто дойдет до конца. Но ТВ проект превращается в смертельно опасную игру, где главным призом становится ЖИЗНЬ… Что это? Больная фантазия телевизионщиков и сценарий? Кто за этим стоит? И кто из героев сможет выжить, не потеряв свою человечность?

Качество: SATRip
Формат: AVI

Видео: 720x304 (2.37:1), 25 fps, XviD build 73 ~1649 kbps avg, 0.30 bit/pixel
Аудио: 48 kHz, MPEG Layer 3, 2 ch, ~192.00 kbps avg
скриншот  скриншот  скриншот  скриншот  

General
Complete name : D:\Торрент\Igra.na.vyzhivanie.2020.XviD.SATRip.25Kuzmich\Igra.na.vyzhivanie.e01.XviD.SATRip.25Kuzmich.avi
Format : AVI
Format/Info : Audio Video Interleave
File size : 651 MiB
Duration : 49 min 9 s
Overall bit rate : 1 852 kb/s
Writing application : VirtualDubMod 1.5.10.3 (build 2550/release)
Writing library : VirtualDubMod build 2550/release

Video
ID : 0
Format : MPEG-4 Visual
Format profile : Advanced Simple@L5
Format settings : BVOP1
Format settings, BVOP : 1
Format settings, QPel : No
Format settings, GMC : No warppoints
Format settings, Matrix : Default (MPEG)
Codec ID : XVID
Codec ID/Hint : XviD
Duration : 49 min 9 s
Bit rate : 1 650 kb/s
Width : 720 pixels
Height : 304 pixels
Display aspect ratio : 2.35:1
Frame rate : 25.000 FPS
Color space : YUV
Chroma subsampling : 4:2:0
Bit depth : 8 bits
Scan type : Progressive
Compression mode : Lossy
Bits/(Pixel*Frame) : 0.301
Stream size : 580 MiB (89%)
Writing library : XviD 73

Audio
ID : 1
Format : MPEG Audio
Format version : Version 1
Format profile : Layer 3
Format settings : Joint stereo / MS Stereo
Codec ID : 55
Codec ID/Hint : MP3
Duration : 49 min 9 s
Bit rate mode : Constant
Bit rate : 192 kb/s
Channel(s) : 2 channels
Sampling rate : 48.0 kHz
Frame rate : 41.667 FPS (1152 SPF)
Compression mode : Lossy
Stream size : 67.5 MiB (10%)
Alignment : Aligned on interleaves
Interleave, duration : 40 ms (1.00 video frame)
Interleave, preload duratio : 504 ms
Writing library : LAME3.99r
Encoding settings : -m j -V 4 -q 2 -lowpass 18.6 -b 192

Когда раздача ведётся путём добавления новых серий, при каждом добавлении создётся новый торрент. Чтобы начать докачку новой серии, пользователям необходимо сделать следующее:
(1) остановить скачивание,
(2) удалить старый торрент у себя из клиента (старые серии удалять не надо),
(3) скачать новый торрент и запустить его у себя в клиенте вместо старого, при этом указать клиенту путь в старую папку, куда и должно происходить скачивание новых серий.
Ваш клиент при этом должен произвести хеширование (проверку) старой папки (если не производит сам - помогите ему сделать это), и будет докачивать только те серии, которых у вас ещё нет. Старые серии при этом не удаляются, а продолжают раздаваться!
Eсли вы уже удалили старые серии, то предотвратить повторную закачку старых серий можно, отжав галочку в соответсвующих местах при запуске нового торрента. По возможности, желательно не удалять старые серии как можно дольше, чтобы релизёр не столько продолжал раздавать старые серии, а смог сконцентрироваться на новых.
pb.wtf



Скачать Игра на выживание через торрент https://img11.lostpic.net/2020/08/31/c32f1533bed6458da5f1899ed837798e.jpg Скачать фильм Игра на выживание через торрент бесплантно в хорошем качестве Описание: Чем может обернуться обычное телевизионное реалити-шоу для его участников? 16 человек отправляются в дикую сибирскую тайгу, чтобы ... 9.9 10 22
Info! Золотая раздача, скачанное не засчитывается.
Торрент: Зарегистрирован [2020-09-17 15:59] · скачан: 139 раз
Статус: √ проверено
Размер: 7.56 GB
Как cкачать? Как скачать Игра на выживание через торрент | qTorrent

% Раздел Тема Автор DL S | L
TNT serials [ 6.53 GB ] Игра на выживание / Сезон: 1 / Серии: 1-12 из 12 [2020 WEBRip] bober100 Скачать
30 | 5
TNT serials [ 18.78 GB ] Игра на выживание / Сезон: 1 / Серии: 1-12 из 12 [2020 WEBRip 1080p] bober100 Скачать
40 | 6
TNT serials [ 7.47 GB ] Игра на выживание / Сезон: 1 / Серии: 1-12 из 12 [2020 WEBRip-AVC] bober100 Скачать
24 | 6
TNT serials [ 7.03 GB ] Игра на выживание / Сезон: 1 / Серии: 1-12 из 12 [2020 WEBRip] bober100 Скачать
3 | 1
TNT serials [ 12.78 GB ] Игра на выживание / Сезон: 1 / Серии: 1-12 из 12 [2020 WEBRip 720p] bober100 Скачать
15 | 4


Последний раз редактировалось: bober100 (2020-09-17 15:59), всего редактировалось 7 раз(а)

28-11-2019 20:33  

Отключить всю рекламу на сайте

05-09-2020 05:33 Игра на выживание Скачать торрент  

ну смотреть можно.....а график выхода серий есть у кого?pb.wtf



05-09-2020 05:48 Игра на выживание Скачать торрент  

версия только с цензурой на сцены и диалоги!!!pb.wtf



18-09-2020 08:27 Игра на выживание Скачать торрент  

Концовка тупая.pb.wtf



19-09-2020 23:04 Игра на выживание Скачать торрент  

На всех моментах цензура!pb.wtf



    Дорогой пользователь! Огромная просьба, поблагодарите релизера, оцените раздачу и оставьте свои комментарий, если Вы скачали Игра на выживание через торрент бесплатно! Внесите свою лепту в развитие PiratBit!
    Комментировать посты могут только пользователи прошедшие не сложную регистрацию
    Показать сообщения:    

    Игра на выживание через торрент
    Скачать бесплатно Игра на выживание
    Игра на выживание скачать торрент
    Игра на выживание смотреть онлайн
    Cкачать фильм Игра на выживание бесплатно
    Игра на выживание скачать торрент в хорошем качестве
    Игра на выживание смотреть онлайн бесплатно в хорошем качестве


    Вы не можете начинать темы
    Вы не можете отвечать на сообщения
    Вы не можете редактировать свои сообщения
    Вы не можете удалять свои сообщения
    Вы не можете голосовать в опросах
    Вы не можете прикреплять файлы к сообщениям
    Вы можете скачивать файлы