Ссылка на приватное зеркало нашего сайта всего за 1$. Внимание количество ограничено!!!

2 сезон

iTunes

iTunes

1

iTunes

iTunes

iTunes

WEBRip

iTunes

30
pack

Вам бонус

ВАЖНО

!!Акция!!

Alien_RageХит недели

RePack

Horizon Zero Dawn

ИГРА 18+

pack

RePack

jed

!!Акция!!

Alien_Rage

RePack

fifa19

RePack

Assassins Creed: Odyssey

RePack

NEED FOR SPEED™ PAYBACK

4 сезон

9 сезон

Бесстыжие 9 сезон

Все сериалы

все сериалы на PB.wtf

RePack

FAR CRY 5
  

Игра на выживание / Сезон: 1 / Серии: 1-12 из 12 (Карен Оганесян) [2020, Приключения, триллер, драма, WEBRip 720p] pb.wtf

Игра на выживание через торрент pb.wtf

Раздают: 9 [ 1 MB/s ] Качают: 1 [ 0 KB/s ]
Размер: 12.78 GB | Добавлен: 7 д. назад | Торрент скачан:44 раза
Скачать  

01-09-2020 00:50 Игра на выживание Скачать торрент  

Игра на выживание
Год выпуска: 2020
Страна: Россия
Выпущено: Амедиа Продакшн, KarGo Films по заказу телеканала ТНТ
Жанр: Приключения, триллер, драма
Продолжительность: ~ 00:50:00 серия
Перевод: Не требуется
Субтитры: отсутствуют

Режиссер: Карен Оганесян



В ролях: Александра Бортич, Алексей Чадов, Игорь Верник, Линда Лапиньш, Владимир Верёвочкин, Беник Аракелян, Анастасия Тодореску, Валерий Скорокосов, Юлия Волкова, Мария Кулик, Михаил Кремер, Илья Хвостиков, Дмитрий Кривошеев, Кристина Поли, Ульяна Лукина, Ирина Воронова, Дэвид Пилия, Дарья Макарова, Юрий Архангельский, Сергей Жарков, Андрей Филиппак, Никита Кологривый, Александр Марушев, Сергей Дьяков, Глеб Бочков, Андрей Быков, Алдар Когаев, Эрдэм Шагдуров

[b]Описание: Чем может обернуться обычное телевизионное реалити-шоу для его участников? 16 человек отправляются в дикую сибирскую тайгу, чтобы побороться за один миллион евро. Правила просты: никакой еды, личных вещей, электричества, связи и цивилизации на сотни километров вокруг. Победит тот, кто дойдет до конца. Но ТВ проект превращается в смертельно опасную игру, где главным призом становится ЖИЗНЬ… Что это? Больная фантазия телевизионщиков и сценарий? Кто за этим стоит? И кто из героев сможет выжить, не потеряв свою человечность?

Качество: WEBRip 720p
Формат: MKV

Видео: MPEG-4 AVC, ~ 3000 Кбит/с, 1280x539, 25 кадр/с
Аудио: AC3, 2 ch, 192 Кбит/с
скриншот  скриншот  скриншот  скриншот  скриншот  

General
Unique ID : 249476216653614756149237554088826390964 (0xBBAF5F219B94E5E5A63DD12F332449B4)
Complete name : C:\00\Ольга.04.2020.WEB-DL 720p.Files-x\02. Ольга.04.2020.WEB-DL 720p.Files-x.mkv
Format : Matroska
File size : 514 MiB
Duration : 22mn 45s
Overall bit rate : 3 158 Kbps
Encoded date : UTC 2020-08-31 18:10:24
Writing application : mkvmerge v7.8.0 ('River Man') 32bit built on Apr 3 2015 12:11:22
Writing library : libebml v1.3.1 + libmatroska v1.4.2

Video
ID : 1
Format : AVC
Format/Info : Advanced Video Codec
Format profile : High@L3.1
Format settings, CABAC : Yes
Format settings, ReFrames : 1 frame
Codec ID : V_MPEG4/ISO/AVC
Duration : 22mn 45s
Bit rate mode : Variable
Bit rate : 2 903 Kbps
Maximum bit rate : 3 000 Kbps
Width : 1 280 pixels
Height : 720 pixels
Display aspect ratio : 16:9
Frame rate : 25.000 fps
Color space : YUV
Chroma subsampling : 4:2:0
Bit depth : 8 bits
Scan type : Progressive
Bits/(Pixel*Frame) : 0.126
Stream size : 473 MiB (92%)

Audio
ID : 2
Format : AC-3
Format/Info : Audio Coding 3
Mode extension : CM (complete main)
Codec ID : A_AC3
Duration : 22mn 45s
Bit rate mode : Constant
Bit rate : 192 Kbps
Channel(s) : 2 channels
Channel positions : Front: L R
Sampling rate : 44.1 KHz
Bit depth : 16 bits
Compression mode : Lossy
Delay relative to video : 9ms
Stream size : 31.2 MiB (6%)

Когда раздача ведётся путём добавления новых серий, при каждом добавлении создётся новый торрент. Чтобы начать докачку новой серии, пользователям необходимо сделать следующее:
(1) остановить скачивание,
(2) удалить старый торрент у себя из клиента (старые серии удалять не надо),
(3) скачать новый торрент и запустить его у себя в клиенте вместо старого, при этом указать клиенту путь в старую папку, куда и должно происходить скачивание новых серий.
Ваш клиент при этом должен произвести хеширование (проверку) старой папки (если не производит сам - помогите ему сделать это), и будет докачивать только те серии, которых у вас ещё нет. Старые серии при этом не удаляются, а продолжают раздаваться!
Eсли вы уже удалили старые серии, то предотвратить повторную закачку старых серий можно, отжав галочку в соответсвующих местах при запуске нового торрента. По возможности, желательно не удалять старые серии как можно дольше, чтобы релизёр не столько продолжал раздавать старые серии, а смог сконцентрироваться на новых.
pb.wtf



Скачать Игра на выживание через торрент https://img11.lostpic.net/2020/08/31/c32f1533bed6458da5f1899ed837798e.jpg Скачать фильм Игра на выживание через торрент бесплантно в хорошем качестве Описание: Чем может обернуться обычное телевизионное реалити-шоу для его участников? 16 человек отправляются в дикую сибирскую тайгу, чтобы ... 9.6 10 23
Торрент: Зарегистрирован [2020-09-18 03:21] · скачан: 44 раз
Статус: √ проверено
Размер: 12.78 GB
Как cкачать? Как скачать Игра на выживание через торрент | qTorrent

% Раздел Тема Автор DL S | L
TNT serials [ 7.56 GB ] Игра на выживание / Сезон: 1 / Серии: 1-12 из 12 [2020 SATRip] bober100 Скачать
9 | 6
TNT serials [ 6.53 GB ] Игра на выживание / Сезон: 1 / Серии: 1-12 из 12 [2020 WEBRip] bober100 Скачать
4 | 2
TNT serials [ 7.47 GB ] Игра на выживание / Сезон: 1 / Серии: 1-12 из 12 [2020 WEBRip-AVC] bober100 Скачать
9 | 4
TNT serials [ 7.03 GB ] Игра на выживание / Сезон: 1 / Серии: 1-12 из 12 [2020 WEBRip] bober100 Скачать
7 | 0
TNT serials [ 18.78 GB ] Игра на выживание / Сезон: 1 / Серии: 1-12 из 12 [2020 WEBRip 1080p] bober100 Скачать
12 | 7


Последний раз редактировалось: bober100 (2020-09-18 03:21), всего редактировалось 5 раз(а)

28-11-2019 20:33  

Отключить всю рекламу на сайте

09-09-2020 02:38 Игра на выживание Скачать торрент  

Добавьте уже остальные серииpb.wtf



10-09-2020 17:34 Игра на выживание Скачать торрент  

Ага .. Быстрее чем на телеке не опубликуют.. наивный! pb.wtf



16-09-2020 03:12 Игра на выживание Скачать торрент  

что за лажа с 9й серией?pb.wtf



17-09-2020 18:17 Игра на выживание Скачать торрент  

юрий131063 писал(а):

что за лажа с 9й серией?

Поддерживаю. Вместо девятой вторая pb.wtf



    Дорогой пользователь! Огромная просьба, поблагодарите релизера, оцените раздачу и оставьте свои комментарий, если Вы скачали Игра на выживание через торрент бесплатно! Внесите свою лепту в развитие PiratBit!
    Комментировать посты могут только пользователи прошедшие не сложную регистрацию
    Показать сообщения:    

    Игра на выживание через торрент
    Скачать бесплатно Игра на выживание
    Игра на выживание скачать торрент
    Игра на выживание смотреть онлайн
    Cкачать фильм Игра на выживание бесплатно
    Игра на выживание скачать торрент в хорошем качестве
    Игра на выживание смотреть онлайн бесплатно в хорошем качестве


    Вы не можете начинать темы
    Вы не можете отвечать на сообщения
    Вы не можете редактировать свои сообщения
    Вы не можете удалять свои сообщения
    Вы не можете голосовать в опросах
    Вы не можете прикреплять файлы к сообщениям
    Вы можете скачивать файлы