Ссылка на приватное зеркало нашего сайта всего за 1$. Внимание количество ограничено!!!

2 сезон

iTunes

iTunes

1

iTunes

iTunes

iTunes

WEBRip

iTunes

30
pack

Вам бонус

ВАЖНО

!!Акция!!

Alien_RageХит недели

RePack

Horizon Zero Dawn

ИГРА 18+

pack

RePack

jed

!!Акция!!

Alien_Rage

RePack

fifa19

RePack

Assassins Creed: Odyssey

RePack

NEED FOR SPEED™ PAYBACK

4 сезон

9 сезон

Бесстыжие 9 сезон

Все сериалы

все сериалы на PB.wtf

RePack

FAR CRY 5
  

Игра на выживание / Сезон: 1 / Серии: 1-12 из 12 (Карен Оганесян) [2020, Приключения, триллер, драма, WEBRip 1080p] pb.wtf

Игра на выживание через торрент pb.wtf

Раздают: 20 [ 2 MB/s ] Качают: 20 [ 0 KB/s ]
Размер: 18.78 GB | Добавлен: 5 д. назад | Торрент скачан:136 раз
Скачать  

01-09-2020 00:50 Игра на выживание Скачать торрент  

Игра на выживание
Год выпуска: 2020
Страна: Россия
Выпущено: Амедиа Продакшн, KarGo Films по заказу телеканала ТНТ
Жанр: Приключения, триллер, драма
Продолжительность: ~ 00:50:00 серия
Перевод: Не требуется
Субтитры: отсутствуют

Режиссер: Карен Оганесян



В ролях: Александра Бортич, Алексей Чадов, Игорь Верник, Линда Лапиньш, Владимир Верёвочкин, Беник Аракелян, Анастасия Тодореску, Валерий Скорокосов, Юлия Волкова, Мария Кулик, Михаил Кремер, Илья Хвостиков, Дмитрий Кривошеев, Кристина Поли, Ульяна Лукина, Ирина Воронова, Дэвид Пилия, Дарья Макарова, Юрий Архангельский, Сергей Жарков, Андрей Филиппак, Никита Кологривый, Александр Марушев, Сергей Дьяков, Глеб Бочков, Андрей Быков, Алдар Когаев, Эрдэм Шагдуров

Описание: Чем может обернуться обычное телевизионное реалити-шоу для его участников? 16 человек отправляются в дикую сибирскую тайгу, чтобы побороться за один миллион евро. Правила просты: никакой еды, личных вещей, электричества, связи и цивилизации на сотни километров вокруг. Победит тот, кто дойдет до конца. Но ТВ проект превращается в смертельно опасную игру, где главным призом становится ЖИЗНЬ… Что это? Больная фантазия телевизионщиков и сценарий? Кто за этим стоит? И кто из героев сможет выжить, не потеряв свою человечность?

Качество: WEBRip 1080p
Формат: MKV

Видео: MPEG-4 AVC, ~ 4500 Кбит/с, 1920x800, 25 кадр/с
Аудио: AC3, 2 ch, 192 Кбит/с
скриншот  скриншот  скриншот  скриншот  

Общее
Уникальный идентификатор : 194564552915244633001850369713260529375 (0x925FC51562E2059FA61E4D277BA906DF)
Полное имя : D:\Down\Igra.na.vyzhivanie.2020.WEB-DL.(1080p).Getty\Igra.na.vyzhivanie.e01.2020.WEB-DL.(1080p).Getty.mkv
Формат : Matroska
Версия формата : Version 4
Размер файла : 1,61 Гбайт
Продолжительность : 51 м. 1 с.
Режим общего битрейта : Переменный
Общий поток : 4512 Кбит/сек
Название фильма : Igra.na.vyzhivanie.e01.2020.WEB-DL.(1080p).Getty
Дата кодирования : UTC 2020-08-31 20:03:04
Программа кодирования : mkvmerge v7.8.0 ('River Man') 32bit built on Mar 27 2015 16:18:02
Библиотека кодирования : libebml v1.3.1 + libmatroska v1.4.2

Видео
Идентификатор : 1
Формат : AVC
Формат/Информация : Advanced Video Codec
Профиль формата : High@L4
Настройки формата : CABAC / 1 Ref Frames
Параметр CABAC формата : Да
Параметр RefFrames формата : 1 кадр
Параметр GOP формата : M=1, N=50
Идентификатор кодека : V_MPEG4/ISO/AVC
Продолжительность : 51 м. 1 с.
Вид битрейта : Переменный
Битрейт : 4319 Кбит/сек
Максимальный битрейт : 4500 Кбит/сек
Ширина : 1920 пикселей
Высота : 800 пикселей
Соотношение сторон : 2,40:1
Режим частоты кадров : Постоянный
Частота кадров : 25,000 кадров/сек
Цветовое пространство : YUV
Субдискретизация насыщенности : 4:2:0
Битовая глубина : 8 бит
Тип развёртки : Прогрессивная
Бит/(Пиксели*Кадры) : 0.112
Размер потока : 1,54 Гбайт (96%)
Default : Да
Forced : Нет

Аудио
Идентификатор : 2
Формат : AC-3
Формат/Информация : Audio Coding 3
Коммерческое название : Dolby Digital
Идентификатор кодека : A_AC3
Продолжительность : 51 м. 1 с.
Вид битрейта : Постоянный
Битрейт : 192 Кбит/сек
Каналы : 2 канала
ChannelLayout : L R
Частота : 48,0 КГц
Частота кадров : 31,250 кадров/сек (1536 SPF)
Битовая глубина : 16 бит
Метод сжатия : С потерями
Размер потока : 70,1 Мбайт (4%)
ServiceKind/String : Complete Main
Default : Да
Forced : Нет

Когда раздача ведётся путём добавления новых серий, при каждом добавлении создётся новый торрент. Чтобы начать докачку новой серии, пользователям необходимо сделать следующее:
(1) остановить скачивание,
(2) удалить старый торрент у себя из клиента (старые серии удалять не надо),
(3) скачать новый торрент и запустить его у себя в клиенте вместо старого, при этом указать клиенту путь в старую папку, куда и должно происходить скачивание новых серий.
Ваш клиент при этом должен произвести хеширование (проверку) старой папки (если не производит сам - помогите ему сделать это), и будет докачивать только те серии, которых у вас ещё нет. Старые серии при этом не удаляются, а продолжают раздаваться!
Eсли вы уже удалили старые серии, то предотвратить повторную закачку старых серий можно, отжав галочку в соответсвующих местах при запуске нового торрента. По возможности, желательно не удалять старые серии как можно дольше, чтобы релизёр не столько продолжал раздавать старые серии, а смог сконцентрироваться на новых.
pb.wtf



Скачать Игра на выживание через торрент https://img11.lostpic.net/2020/08/31/c32f1533bed6458da5f1899ed837798e.jpg Скачать фильм Игра на выживание через торрент бесплантно в хорошем качестве Описание: Чем может обернуться обычное телевизионное реалити-шоу для его участников? 16 человек отправляются в дикую сибирскую тайгу, чтобы ... 10 10 18
Торрент: Зарегистрирован [2020-09-18 03:22] · скачан: 136 раз
Статус: √ проверено
Размер: 18.78 GB
Как cкачать? Как скачать Игра на выживание через торрент | qTorrent

% Раздел Тема Автор DL S | L
TNT serials [ 7.56 GB ] Игра на выживание / Сезон: 1 / Серии: 1-12 из 12 [2020 SATRip] bober100 Скачать
15 | 18
TNT serials [ 6.53 GB ] Игра на выживание / Сезон: 1 / Серии: 1-12 из 12 [2020 WEBRip] bober100 Скачать
9 | 4
TNT serials [ 7.47 GB ] Игра на выживание / Сезон: 1 / Серии: 1-12 из 12 [2020 WEBRip-AVC] bober100 Скачать
16 | 12
TNT serials [ 7.03 GB ] Игра на выживание / Сезон: 1 / Серии: 1-12 из 12 [2020 WEBRip] bober100 Скачать
17 | 3
TNT serials [ 12.78 GB ] Игра на выживание / Сезон: 1 / Серии: 1-12 из 12 [2020 WEBRip 720p] bober100 Скачать
16 | 6


Последний раз редактировалось: bober100 (2020-09-18 03:22), всего редактировалось 1 раз

28-11-2019 20:33  

Отключить всю рекламу на сайте

    Дорогой пользователь! Огромная просьба, поблагодарите релизера, оцените раздачу и оставьте свои комментарий, если Вы скачали Игра на выживание через торрент бесплатно! Внесите свою лепту в развитие PiratBit!
    Комментировать посты могут только пользователи прошедшие не сложную регистрацию
    Показать сообщения:    

    Игра на выживание через торрент
    Скачать бесплатно Игра на выживание
    Игра на выживание скачать торрент
    Игра на выживание смотреть онлайн
    Cкачать фильм Игра на выживание бесплатно
    Игра на выживание скачать торрент в хорошем качестве
    Игра на выживание смотреть онлайн бесплатно в хорошем качестве


    Вы не можете начинать темы
    Вы не можете отвечать на сообщения
    Вы не можете редактировать свои сообщения
    Вы не можете удалять свои сообщения
    Вы не можете голосовать в опросах
    Вы не можете прикреплять файлы к сообщениям
    Вы можете скачивать файлы