Ссылка на приватное зеркало нашего сайта всего за 1$. Внимание количество ограничено!!!

2 сезон

iTunes

1 сезон

1

iTunes

iTunes

iTunes

1 сезон

RePack

30

ИГРА 18+

pack

ВАЖНО

!!Акция!!

Alien_RageХит недели

RePack

MK11
pack

Забери бонус

RePack

jed

!!Акция!!

Alien_Rage

RePack

fifa19

RePack

Assassins Creed: Odyssey

RePack

NEED FOR SPEED™ PAYBACK

4 сезон

9 сезон

Бесстыжие 9 сезон

Все сериалы

все сериалы на PB.wtf

RePack

FAR CRY 5
  

Презумпция невиновности / Сезон: 1 / Серии: 1-6 из 16 (Наталия Бучнева) [2020, Детектив, мелодрама, SATRip] pb.wtf

Презумпция невиновности через торрент pb.wtf

Размер: 4.03 GB | Добавлен: 1 мес. 26 д. назад | Торрент скачан:21 раз
Скачать  

01-09-2020 01:32 Презумпция невиновности Скачать торрент  

Презумпция невиновности
Год выпуска: 2020
Страна: Россия
Выпущено: R-media, Look Film
Жанр: Детектив, мелодрама
Продолжительность: ~ 00:51:00
Перевод: Не требуется
Субтитры: отсутствуют

Режиссер: Наталия Бучнева



В ролях: Кирилл Рубцов, Никита Панфилов, Светлана Устинова, Наталия Медведева (IV), Даниил Спиваковский, Наталья Высочанская, Роман Маякин, Алика Смехова, Анна Большова, Ольга Будина, Алёна Хмельницкая, Дмитрий Комов, Ирина Шеянова, Михаил Горевой, Егор Ковалёв, Елена Лядова

Описание: Адвокат Борис Аврутин — циничный, богатый, с хорошим чувством юмора, любящий шокировать и провоцировать. Берется за самые безнадежные дела и всегда их выигрывает. Терпению местных органов следствия приходит конец, когда Аврутин выпускает из зала суда убийцу полицейского. Начальник следственного отдела дает указание следователю Денису Глебову собрать компромат на адвоката и дискредитировать его. В этом Глебову соглашается помочь его возлюбленная, журналистка криминальных новостей Светлана Верницкая. Под предлогом съемок телевизионного фильма об Аврутине она внедряется в его ближайшее окружение и втайне проводит журналистское расследование…

Качество: SATRip
Формат: AVI

Видео: XviD, ~ 1650 Кбит/с, 720x400
Аудио: MP3, 2 ch, 192 Кбит/с
скриншот  скриншот  скриншот  скриншот  

Общее
Полное имя : D:\Prezumpciya.nevinovnosti.2020.XviD.SATRip.25Kuzmich\Prezumpciya.nevinovnosti.e01.XviD.SATRip.25Kuzmich.avi
Формат : AVI
Формат/Информация : Audio Video Interleave
Размер файла : 680 Мбайт
Продолжительность : 51 м. 16 с.
Общий поток : 1854 Кбит/сек
Программа кодирования : VirtualDubMod 1.5.10.3 (build 2550/release)
Библиотека кодирования : VirtualDubMod build 2550/release

Видео
Идентификатор : 0
Формат : MPEG-4 Visual
Профиль формата : Advanced Simple@L5
Параметр BVOP формата : 1
Параметр QPel формата : Нет
Параметр GMC формата : Без точки перехода
Параметр матрицы формата : Default (MPEG)
Идентификатор кодека : XVID
Идентификатор кодека/Подсказка : XviD
Продолжительность : 51 м. 16 с.
Битрейт : 1653 Кбит/сек
Ширина : 720 пикселей
Высота : 400 пикселей
Соотношение сторон : 16:9
Частота кадров : 25,000 кадров/сек
Цветовое пространство : YUV
Субдискретизация насыщенности : 4:2:0
Битовая глубина : 8 бит
Тип развёртки : Прогрессивная
Метод сжатия : С потерями
Бит/(Пиксели*Кадры) : 0.230
Размер потока : 606 Мбайт (89%)
Библиотека кодирования : XviD 73

Аудио
Идентификатор : 1
Формат : MPEG Audio
Версия формата : Version 1
Профиль формата : Layer 3
Режим : Joint stereo
Расширение режима : MS Stereo
Идентификатор кодека : 55
Идентификатор кодека/Подсказка : MP3
Продолжительность : 51 м. 16 с.
Вид битрейта : Постоянный
Битрейт : 192 Кбит/сек
Каналы : 2 канала
Частота : 48,0 КГц
Метод сжатия : С потерями
Размер потока : 70,4 Мбайт (10%)
Выравнивание : Соединение по промежуткам
Продолжительность промежутка : 40 мс. (1,00 видеокадр)
Время предзагрузки промежутка : 504 мс.
Библиотека кодирования : LAME3.99r
Настройки программы : -m j -V 4 -q 2 -lowpass 18.6 -b 192

Когда раздача ведётся путём добавления новых серий, при каждом добавлении создётся новый торрент. Чтобы начать докачку новой серии, пользователям необходимо сделать следующее:
(1) остановить скачивание,
(2) удалить старый торрент у себя из клиента (старые серии удалять не надо),
(3) скачать новый торрент и запустить его у себя в клиенте вместо старого, при этом указать клиенту путь в старую папку, куда и должно происходить скачивание новых серий.
Ваш клиент при этом должен произвести хеширование (проверку) старой папки (если не производит сам - помогите ему сделать это), и будет докачивать только те серии, которых у вас ещё нет. Старые серии при этом не удаляются, а продолжают раздаваться!
Eсли вы уже удалили старые серии, то предотвратить повторную закачку старых серий можно, отжав галочку в соответсвующих местах при запуске нового торрента. По возможности, желательно не удалять старые серии как можно дольше, чтобы релизёр не столько продолжал раздавать старые серии, а смог сконцентрироваться на новых.
pb.wtf



Скачать Презумпция невиновности через торрент https://i112.fastpic.ru/big/2020/0831/a7/46f0cbf7c43f0564db0c96bc8060eaa7.jpg Скачать фильм Презумпция невиновности через торрент бесплантно в хорошем качестве Описание: Адвокат Борис Аврутин — циничный, богатый, с хорошим чувством юмора, любящий шокировать и провоцировать. Берется за самые ... 10 10 3
Торрент: Зарегистрирован [2020-09-03 03:40] · скачан: 21 раз
Статус: √ проверено
Размер: 4.03 GB
Как cкачать? Как скачать Презумпция невиновности через торрент | qTorrent

% Раздел Тема Автор DL S | L
Наши сериалы [ 3.92 GB ] Презумпция невиновности / Сезон: 1 / Серии: 1-6 из 16 [2020 HDTVRip] bober100 Скачать
1 | 0
Наши сериалы [ 15.46 GB ] Презумпция невиновности / Сезон: 1 / Серии: 1-6 из 16 [2020 HDTV 1080i] bober100 Скачать
1 | 0

28-11-2019 20:33  

Отключить всю рекламу на сайте

    Дорогой пользователь! Огромная просьба, поблагодарите релизера, оцените раздачу и оставьте свои комментарий, если Вы скачали Презумпция невиновности через торрент бесплатно! Внесите свою лепту в развитие PiratBit!
    Комментировать посты могут только пользователи прошедшие не сложную регистрацию
    Показать сообщения:    

    Презумпция невиновности через торрент
    Скачать бесплатно Презумпция невиновности
    Презумпция невиновности скачать торрент
    Презумпция невиновности смотреть онлайн
    Cкачать фильм Презумпция невиновности бесплатно
    Презумпция невиновности скачать торрент в хорошем качестве
    Презумпция невиновности смотреть онлайн бесплатно в хорошем качестве


    Вы не можете начинать темы
    Вы не можете отвечать на сообщения
    Вы не можете редактировать свои сообщения
    Вы не можете удалять свои сообщения
    Вы не можете голосовать в опросах
    Вы не можете прикреплять файлы к сообщениям
    Вы можете скачивать файлы