2 сезон

iTunes

MVO

1

2 сезон

iTunes

iTunes

1 сезон

RePack

30

Ultimate

ВАЖНО

ИГРА 18+

pack

RePack

MK11
pack

Легкие деньги

RePack

jed

RePack

fifa19

RePack

RDR2

RePack

NEED FOR SPEED™ PAYBACK

4 сезон

9 сезон

Бесстыжие 9 сезон

Все сериалы

все сериалы на PB.wtf

RePack

FAR CRY 5

Anonymous, добрый вечер, мы не успеваем собрать деньги на оплату серверов за декабрь и январь, помогите нам пожалуйста в это трудное время. В качестве благодарности мы отключим Вам всю рекламу на сайте (укажите свой ник в строку Ваше имя)!

×
  
Magnet ссылка

Смертельный захват / Deadly Outbreak (Рик Эйвери) [1995 г., Боевик, WEB-DLRip 720p / 60 FPS, Профессиональный (многоголосый)] от R.G. HD-Films pb.wtf

Смертельный захват через торрент pb.wtf

Размер: 4.05 GB | Добавлен: 4 мес. 16 д. назад | Торрент скачан:15 раз
Скачать  

01-09-2020 14:01 Смертельный захват Скачать торрент  

Смертельный захват / Deadly Outbreak
Год выпуска: 1995
Страна: США
Жанр: Боевик
Продолжительность: 01:34:26
Перевод: Профессиональный (многоголосый закадровый) ТВ-Центр
Субтитры: English

Режиссер: Рик Эйвери

Премьера в мире: 15 марта 1996

rating

В ролях: Джефф Спикмэн, Рон Сильвер, Рошелль Суонсон, Джек Эдалист, Джонатан Сегалл, Ехуда Эльбойм, Идан Альтерман, Дан Турджеман, Иегуда Эфрони, Кевин Джонс

Описание: Израиль. Группа террористов под командованием полковника Барона захватывает лабораторию доктора Элли Левин, в которой разрабатывалось новейшее биохимическое оружие. Террористы хотя получить формулу нового изобретения. На помощь ученым приходит сержант Даттон Хэтфилд, сотрудник американского посольства…
Неплохой боевик. Снявший картину Рик Эвери на самом деле известнейший каскадер, а это его один из двух режиссерских опытов: в том же 1995 году он снял картину «Эксперт» с тем же Джеффом Спикманом («Совершенное оружие», 1991) в главной роли.

Качество: WEB-DLRip 720p / 60 FPS
Формат: MKV
Видео кодек: H.264
Аудио кодек: AC3
Видео: x264, 1280 x 720 ( 16:9 ), 5950 kbps, 60,000 fps, ( 0.108 bpp)
Аудио#1: Русский, AC-3, 48.0 KHz, 2 ch, 192 Kbps MVO ( ТВ-Центр )
Релиз от:

скриншот   скриншот   скриншот   скриншот   скриншот  Автор рипа: slaventi-69
x264 [info]: frame I:1401 Avg QP:19.16 size: 67638
x264 [info]: frame P:84550 Avg QP:20.01 size: 23702
x264 [info]: frame B:253680 Avg QP:21.85 size: 8321
x264 [info]: consecutive B-frames: 1.3% 5.8% 15.9% 14.3% 53.6% 9.1%


Общее
Уникальный идентификатор : 248493873149394883460189642580743886060 (0xBAF22DDB6E9ED0E68C0C31FEDF1714EC)
Полное имя : F:\Deadly.Outbreak.(1995).WEB-DLRip.720p.(60 Fps).mkv
Формат : Matroska
Версия формата : Version 4
Размер файла : 4,05 Гбайт
Продолжительность : 1 ч. 34 м.
Общий поток : 6146 Кбит/сек
Название фильма : Смертельный захват / Deadly Outbreak (1995) WEB-DLRip 720p (60 Fps)
Дата кодирования : UTC 2020-07-26 10:19:08
Программа кодирования : mkvmerge v9.7.1 ('Pandemonium') 64bit
Библиотека кодирования : libebml v1.3.4 + libmatroska v1.4.5

Видео
Идентификатор : 1
Формат : AVC
Формат/Информация : Advanced Video Codec
Профиль формата : High@L4.1
Настройки формата : CABAC / 8 Ref Frames
Параметр CABAC формата : Да
Параметр RefFrames формата : 8 кадров
Идентификатор кодека : V_MPEG4/ISO/AVC
Продолжительность : 1 ч. 34 м.
Битрейт : 5950 Кбит/сек
Ширина : 1280 пикселей
Высота : 720 пикселей
Соотношение сторон : 16:9
Режим частоты кадров : Постоянный
Частота кадров : 60,000 кадров/сек
Цветовое пространство : YUV
Субдискретизация насыщенности : 4:2:0
Битовая глубина : 8 бит
Тип развёртки : Прогрессивная
Бит/(Пиксели*Кадры) : 0.108
Размер потока : 3,92 Гбайт (97%)
Заголовок : slaventi-69 ( R.G. HD-Films | 60 fps )
Библиотека кодирования : x264 core 130 r2273 b3065e6
Настройки программы : cabac=1 / ref=9 / deblock=1:-1:-1 / analyse=0x3:0x133 / me=umh / subme=9 / psy=1 / psy_rd=1.00:0.00 / mixed_ref=1 / me_range=32 / chroma_me=1 / trellis=2 / 8x8dct=1 / cqm=0 / deadzone=21,11 / fast_pskip=0 / chroma_qp_offset=-2 / threads=10 / lookahead_threads=4 / sliced_threads=0 / nr=0 / decimate=1 / interlaced=0 / bluray_compat=0 / constrained_intra=0 / bframes=5 / b_pyramid=1 / b_adapt=2 / b_bias=0 / direct=2 / weightb=1 / open_gop=0 / weightp=2 / keyint=600 / keyint_min=60 / scenecut=40 / intra_refresh=0 / rc=crf / mbtree=0 / crf=18.7 / qcomp=0.60 / qpmin=0 / qpmax=69 / qpstep=4 / ip_ratio=1.40 / pb_ratio=1.30 / aq=1:1.00
Язык : English
Default : Да
Forced : Нет

Аудио
Идентификатор : 2
Формат : AC-3
Формат/Информация : Audio Coding 3
Коммерческое название : Dolby Digital
Идентификатор кодека : A_AC3
Продолжительность : 1 ч. 34 м.
Вид битрейта : Постоянный
Битрейт : 192 Кбит/сек
Каналы : 2 канала
Channel layout : L R
Частота : 48,0 КГц
Частота кадров : 31,250 кадров/сек (1536 SPF)
Битовая глубина : 16 бит
Метод сжатия : С потерями
Размер потока : 130 Мбайт (3%)
Заголовок : MVO ( ТВ-Центр )
Язык : Russian
ServiceKind/String : Complete Main
Default : Да
Forced : Нет

Текст
Идентификатор : 3
Формат : UTF-8
Идентификатор кодека : S_TEXT/UTF8
Идентификатор кодека/Информация : UTF-8 Plain Text
Продолжительность : 1 ч. 31 м.
Битрейт : 37 бит/сек
ElementCount : 1098
Размер потока : 24,9 Кбайт (0%)
Заголовок : English [SDH]
Язык : English
Default : Нет
Forced : Нет

Просьба к переливающим на другие сайты, в оформлении указывайте пожалуйста авторство группы R.G. HD-Films pb.wtf



Скачать Смертельный захват через торрент https://d.radikal.ru/d33/2003/19/9b3f12bedda8.jpg Скачать фильм Смертельный захват через торрент бесплантно в хорошем качестве Описание: Израиль. Группа террористов под командованием полковника Барона захватывает лабораторию доктора Элли Левин, в которой ... 10 10 3
Торрент: Зарегистрирован [2020-09-01 14:01] · скачан: 15 раз
Статус: √ проверено
Размер: 4.05 GB
Как cкачать? Как скачать Смертельный захват через торрент | UTorrent

28-11-2019 20:33  

Отключить всю рекламу на сайте

01-09-2020 15:59 Смертельный захват Скачать торрент  

Уличный рыцарь был бы в качестве вот это классный фильмpb.wtf



01-09-2020 17:02 Смертельный захват Скачать торрент  

Predator7128 писал(а):

Уличный рыцарь был бы в качестве вот это классный фильм

Его нет в HD качестве..... к сожалению. Будем надеяться пока. Вся надежда на один американский хороший сайт.pb.wtf



01-09-2020 19:04 Смертельный захват Скачать торрент  

Спасибо надеемся что будетpb.wtf



02-09-2020 05:59 Смертельный захват Скачать торрент  

Predator7128 писал(а):

Спасибо надеемся что будет

Я бы сюда еще "Эксперт" с ним добавил, фильм тоже хорош.pb.wtf



02-09-2020 06:00 Смертельный захват Скачать торрент  

Простое человеческое спасибо человеку, благодаря которому мы можем теперь смотреть этот фильм в таком качестве. Просто супер!!!pb.wtf



02-09-2020 12:54 Смертельный захват Скачать торрент  

Смотрите в удовольствие.pb.wtf



    Дорогой пользователь! Огромная просьба, поблагодарите релизера, оцените раздачу и оставьте свои комментарий, если Вы скачали Смертельный захват через торрент бесплатно! Внесите свою лепту в развитие PiratBit!
    Комментировать посты могут только пользователи прошедшие не сложную регистрацию
    Показать сообщения:    

    Смертельный захват через торрент
    Скачать бесплатно Смертельный захват
    Смертельный захват скачать торрент
    Смертельный захват смотреть онлайн
    Cкачать фильм Смертельный захват бесплатно
    Смертельный захват скачать торрент в хорошем качестве
    Смертельный захват смотреть онлайн бесплатно в хорошем качестве


    Вы не можете начинать темы
    Вы не можете отвечать на сообщения
    Вы не можете редактировать свои сообщения
    Вы не можете удалять свои сообщения
    Вы не можете голосовать в опросах
    Вы не можете прикреплять файлы к сообщениям
    Вы можете скачивать файлы