Лицензия

MVO

1

1 сезон

Лицензия

Лицензия

13

MVO

1 сезон

Deluxe Edition

pack

Рекомендуем

30

Repack

ВАЖНО

ВАЖНО

Ghostwire

RePack

jed

RePack

fifa19

RePack

RDR2

RePack

NEED FOR SPEED™ PAYBACK

RePack

Кинопоиск HD

 Острые козырьки 6 сезон

6 сезон

FAR CRY 6

RePack

Лицензия

MVO

1

1 сезон

1 сезон

Лицензия

  

Морозко (Александр Роу) [1964, Сказка, комедия, семейный, BDRip 1080p]

Морозко через торрент pb.wtf

Размер: 7.76 GB | Добавлен: 2 года назад | Торрент скачан:67 раз
Смотреть онлайн Морозко | Скачать   

02-09-2020 06:48 Морозко Скачать торрент  

Морозко

Год выпуска: 1964
Жанр: Сказка, комедия, семейный
Страна: СССР
Студия: Киностудия имени М. Горького
Продолжительность: 01:22:18
Перевод: Не требуется
Субтитры: Русские, английские

Режиссёр: Александр Роу

В ролях: Александр Хвыля, Наталья Седых, Эдуард Изотов, Инна Чурикова, Павел Павленко, Вера Алтайская, Георгий Милляр, Галина Борисова, Анатолий Кубацкий, Валентин Брылеев

О фильме: Жила-была хорошая добрая девушка Настенька. Злая мачеха заставляла ее работать, не давая продыху. Однажды она решила избавиться от падчерицы и отправила ту замерзать в зимний лес. В этих же краях жил паренек Иван. Он полюбил Настеньку, да вот только был он большим хвастуном, потому лесной колдун и превратил его в медведя. И Настеньке, и Ивану пришлось пройти через много испытаний, прежде чем соединить свои судьбы. И помог им в этом добрый волшебник - дедушка Морозко.



Качество: BDRemux 1080p
Формат: MKV
Видео: MPEG-4 AVC, 12.9 Мбит/с, 1480x1080, 23.976 Кадр/с
Аудио: AC3, 6 ch, 640 kbps - Русский
Формат : Matroska

Версия формата : Version 2

Размер файла : 7,76 Гбайт

Продолжительность : 1 ч. 22 м.

Общий поток : 13,5 Мбит/сек

Название фильма : ~V ad~

Дата кодирования : UTC 2020-08-19 20:03:25

Программа кодирования : mkvmerge v6.9.1 ('Blue Panther') 32bit built on Apr 18 2014 18:15:44

Библиотека кодирования : libebml v1.3.0 + libmatroska v1.4.1

Обложка : Yes

Attachments : cover.jpg

Видео

Идентификатор : 1

Формат : AVC

Формат/Информация : Advanced Video Codec

Профиль формата : [email protected]

Настройки формата : CABAC / 5 Ref Frames

Параметр CABAC формата : Да

Параметр RefFrames формата : 5 кадров

Идентификатор кодека : V_MPEG4/ISO/AVC

Продолжительность : 1 ч. 22 м.

Битрейт : 12,9 Мбит/сек

Ширина : 1 480 пикселей

Высота : 1 080 пикселей

Соотношение сторон : 1,370

Режим частоты кадров : Постоянный

Частота кадров : 23,976 (24000/1001) кадра/сек

Цветовое пространство : YUV

Субдискретизация насыщенности : 4:2:0

Битовая глубина : 8 бит

Тип развёртки : Прогрессивная

Бит/(Пиксели*Кадры) : 0.335

Размер потока : 7,24 Гбайт (93%)

Заголовок : ~V~

Библиотека кодирования : x264 core 161 r3018 db0d417

Настройки программы : cabac=1 / ref=5 / deblock=1:-3:-3 / analyse=0x3:0x133 / me=umh / subme=11 / psy=1 / psy_rd=1.10:0.00 / mixed_ref=1 / me_range=32 / chroma_me=1 / trellis=2 / 8x8dct=1 / cqm=0 / deadzone=21,11 / fast_pskip=0 / chroma_qp_offset=-2 / threads=12 / lookahead_threads=1 / sliced_threads=0 / nr=0 / decimate=0 / interlaced=0 / bluray_compat=0 / constrained_intra=0 / bframes=8 / b_pyramid=2 / b_adapt=2 / b_bias=0 / direct=3 / weightb=1 / open_gop=0 / weightp=2 / keyint=240 / keyint_min=23 / scenecut=40 / intra_refresh=0 / rc=2pass / mbtree=0 / bitrate=12856 / ratetol=1.0 / qcomp=0.65 / qpmin=0 / qpmax=69 / qpstep=4 / cplxblur=20.0 / qblur=0.5 / ip_ratio=1.20 / pb_ratio=1.21 / aq=3:0.76

Язык : Русский

Default : Да

Forced : Нет

Duration_Source : General_Duration

Аудио

Идентификатор : 2

Формат : AC-3

Формат/Информация : Audio Coding 3

Коммерческое название : Dolby Digital

Идентификатор кодека : A_AC3

Продолжительность : 1 ч. 22 м.

Вид битрейта : Постоянный

Битрейт : 640 Кбит/сек

Каналы : 6 каналов

Channel layout : L R C LFE Ls Rs

Частота : 48,0 КГц

Частота кадров : 31,250 кадров/сек (1536 SPF)

Метод сжатия : С потерями

Размер потока : 377 Мбайт (5%)

Язык : Русский

Service kind : Complete Main

Default : Да

Forced : Нет

Duration_Source : General_Duration

Текст #1

Идентификатор : 3

Формат : UTF-8

Идентификатор кодека : S_TEXT/UTF8

Идентификатор кодека/Информация : UTF-8 Plain Text

Язык : Русский

Default : Нет

Forced : Нет

Текст #2

Идентификатор : 4

Формат : UTF-8

Идентификатор кодека : S_TEXT/UTF8

Идентификатор кодека/Информация : UTF-8 Plain Text

Язык : Английский

Default : Нет

Forced : Нет

Меню

00:00:00.000 : ru:Титры

00:02:20.140 : ru:До рассвета

00:09:04.377 : ru:Добрый молодец

00:14:52.391 : ru:Старичок-боровичок

00:18:40.369 : ru:Путеводное перышко

00:27:14.007 : ru:Медвежья морда

00:33:38.642 : ru:Макияж

00:35:25.790 : ru:Доброе дело

00:36:15.006 : ru:Сватовство

00:43:09.253 : ru:Ссылка

00:46:17.775 : ru:Баба-Яга

00:50:37.785 : ru:Морозко

00:54:17.087 : ru:Шустрые саночки

01:01:04.411 : ru:Морозильный посох

01:08:29.981 : ru:Марфа и Морозко

01:12:52.952 : ru:Разбойники

01:19:27.429 : ru:Свадьба
скриншот  скриншот  скриншот  скриншот  



Скачать Морозко через торрент http://b.radikal.ru/b36/1812/cb/db5598d2de6e.png Скачать, смотреть онлайн Морозко бесплантно в хорошем качестве О фильме: Жила-была хорошая добрая девушка Настенька. Злая мачеха заставляла ее работать, не давая продыху. Однажды она решила избавиться ... 10 10 5
Info! Золотая раздача, скачанное не засчитывается.
Торрент: Зарегистрирован [2020-09-02 06:48] · скачан: 67 раз
Статус: √ проверено
Размер: 7.76 GB
Как cкачать? Как скачать Морозко через торрент | UTorrent

% Раздел Тема Автор DL S | L
Наши фильмы (Blu-ray, BD-Remux, HDDVD) [ 16.92 GB ] Морозко | | 1080p Russian Mafia Скачать
1 | 0
Наши фильмы (Blu-ray, BD-Remux, HDDVD) [ 20.48 GB ] Морозко | | 1080p Russian Mafia Скачать
1 | 0
Детские отечественные фильмы [ 7.52 GB ] Морозко | | 1080p kisa1980 Скачать
1 | 0
Детские отечественные фильмы [ 2.12 GB ] Морозко | | BDRip-AVC Enigma2010 Скачать
5 | 0
Детские отечественные фильмы [ 7.85 GB ] Морозко | | HDTV 1080p Леонид Ильич Скачать
1 | 0
Детские отечественные фильмы [ 1.46 GB ] Морозко | | HDTVRip от Twi7ter Twi7ter Скачать
1 | 0
Детские отечественные фильмы [ 1.95 GB ] Морозко | | DVDRip-AVC от AVP Studio AVP Studio Скачать
1 | 0

28-11-2019 20:33  

Отключить вcю реклaмy на сайте

02-09-2020 13:50 Морозко Скачать торрент  

самый лучший



02-09-2020 14:10 Морозко Скачать торрент  

Роу могёт!



    Дорогой пользователь! Огромная просьба, поблагодарите релизера, оцените раздачу и оставьте свои комментарий, если Вы скачали Морозко через торрент бесплатно!!
    Комментировать посты могут только пользователи прошедшие не сложную регистрацию
    Показать сообщения:    


    Морозко через торрент
    Скачать бесплатно Морозко
    Морозко скачать торрент
    Морозко смотреть онлайн
    Cкачать фильм Морозко бесплатно
    Морозко скачать торрент в хорошем качестве
    Морозко смотреть онлайн бесплатно в хорошем качестве
    Вы не можете начинать темы
    Вы не можете отвечать на сообщения
    Вы не можете редактировать свои сообщения
    Вы не можете удалять свои сообщения
    Вы не можете голосовать в опросах
    Вы не можете прикреплять файлы к сообщениям
    Вы можете скачивать файлы