2 сезон

iTunes

MVO

1

2 сезон

iTunes

iTunes

1 сезон

RePack

30

Новинка

ВАЖНО

ИГРА 18+

pack

RePack

MK11
pack

Легкие деньги

RePack

jed

RePack

fifa19

RePack

RDR2

RePack

NEED FOR SPEED™ PAYBACK

4 сезон

9 сезон

Бесстыжие 9 сезон

Все сериалы

все сериалы на PB.wtf

RePack

FAR CRY 5

Anonymous, доброй ночи, мы не успеваем собрать деньги на оплату серверов за декабрь и январь, помогите нам пожалуйста в это трудное время. В качестве благодарности мы отключим Вам всю рекламу на сайте (укажите свой ник в строку Ваше имя)!

×
  
Magnet ссылка

Огонь из преисподней / Fire Down Below (Феликс Энрикез Алькала) [1997 г., Боевик, триллер, драма, WEB-DLRip 720p / 60 FPS, Дубляж] от R.G. HD-Films pb.wtf

Огонь из преисподней через торрент pb.wtf

Размер: 4.3 GB | Добавлен: 4 мес. 22 д. назад | Торрент скачан:28 раз
Скачать  

02-09-2020 13:47 Огонь из преисподней Скачать торрент  

Огонь из преисподней / Fire Down Below
Год выпуска: 1997
Страна: США
Жанр: Боевик, триллер, драма
Продолжительность: 01:44:36
Перевод: Дубляж (Мост-Видео)
Субтитры: Russian, English

Режиссер: Феликс Энрикез Алькала

Бюджет: $60 000 000
Премьера в мире: 5 сентября 1997

rating

В ролях: Стивен Сигал, Марг Хельгенбергер, Стивен Лэнг, Брэд Хант, Крис Кристофферсон, Гарри Дин Стэнтон, Левон Хельм, Марк Колли, Алекс Харви, Эд Брюс, Амелия Нейборс, Ричард Мэсур, Майкл Кравич, Клэй Джетер, Ивонн Поллард, Ньюэлл Александр, Пегги Линн, Пэтси Линн, Джон Дил, Майкл Мэттисон, Дэннис Леттс, Джон Проски, Джина Мари

Описание: В Аппалачах, в живописной долине, разворачивается действие этого жесткого боевика. Беспринципный магнат и его банда хозяйничают в долине, разрушая в погоне за прибылью богатейшую природу района. И, самое страшное, у них на складах хранятся тонны химического ядовитого продукта, способного уничтожить половину всего живого в долине. Местные жители запуганы, чиновники подкуплены, а инспектор по охране окружающей среды убит… На место действия прибывает секретный агент Джек Таггерт с целью выяснить обстановку и рассчитаться сполна с магнатом и его головорезами.

Качество: WEB-DLRip 720p / 60 FPS
Формат: MKV
Видео кодек: H.264
Аудио кодек: AC3
Видео: x264, 1280 x 720 ( 16:9 ), 5513 kbps, 60,000 fps, ( 0.100 bpp)
Аудио#1: Русский, AC-3, 48.0 KHz, 6 ch, 384 Kbps Dub (Мост-Видео )
Релиз от:

скриншот   скриншот   скриншот   скриншот   скриншот  Автор рипа: slaventi-69
x264 [info]: frame I:1796 Avg QP:16.93 size: 92382
x264 [info]: frame P:88891 Avg QP:17.89 size: 23622
x264 [info]: frame B:285236 Avg QP:20.05 size: 7193
x264 [info]: consecutive B-frames: 2.4% 2.5% 7.6% 13.9% 66.1% 7.5%


Общее
Уникальный идентификатор : 242188099917191955912286071491875585863 (0xB633BB3BC03CB693BBB7EF304FBC3F47)
Полное имя : F:\Fire.Down.Below.(1997).WEB-DLRip.720p.(60 Fps).mkv
Формат : Matroska
Версия формата : Version 4
Размер файла : 4,30 Гбайт
Продолжительность : 1 ч. 44 м.
Общий поток : 5901 Кбит/сек
Название фильма : Огонь из преисподней / Fire Down Below (1997) WEB-DLRip 720p (60 Fps)
Дата кодирования : UTC 2020-07-24 18:08:47
Программа кодирования : mkvmerge v12.0.0 ('Trust / Lust') 64bit
Библиотека кодирования : libebml v1.3.4 + libmatroska v1.4.5

Видео
Идентификатор : 1
Формат : AVC
Формат/Информация : Advanced Video Codec
Профиль формата : Main@L4.1
Настройки формата : CABAC / 8 Ref Frames
Параметр CABAC формата : Да
Параметр RefFrames формата : 8 кадров
Идентификатор кодека : V_MPEG4/ISO/AVC
Продолжительность : 1 ч. 44 м.
Битрейт : 5513 Кбит/сек
Ширина : 1280 пикселей
Высота : 720 пикселей
Соотношение сторон : 16:9
Режим частоты кадров : Постоянный
Частота кадров : 60,000 кадров/сек
Цветовое пространство : YUV
Субдискретизация насыщенности : 4:2:0
Битовая глубина : 8 бит
Тип развёртки : Прогрессивная
Бит/(Пиксели*Кадры) : 0.100
Размер потока : 4,02 Гбайт (93%)
Заголовок : slaventi-69 ( R.G. HD-Films | 60 fps )
Библиотека кодирования : x264 core 130 r2273 b3065e6
Настройки программы : cabac=1 / ref=8 / deblock=1:-1:-1 / analyse=0x1:0x131 / me=umh / subme=9 / psy=1 / psy_rd=1.00:0.00 / mixed_ref=1 / me_range=28 / chroma_me=1 / trellis=2 / 8x8dct=0 / cqm=0 / deadzone=21,11 / fast_pskip=0 / chroma_qp_offset=-2 / threads=4 / lookahead_threads=2 / sliced_threads=0 / nr=0 / decimate=1 / interlaced=0 / bluray_compat=0 / constrained_intra=0 / bframes=5 / b_pyramid=2 / b_adapt=2 / b_bias=0 / direct=2 / weightb=1 / open_gop=0 / weightp=2 / keyint=600 / keyint_min=60 / scenecut=40 / intra_refresh=0 / rc=crf / mbtree=0 / crf=17.3 / qcomp=0.60 / qpmin=0 / qpmax=69 / qpstep=4 / ip_ratio=1.40 / pb_ratio=1.30 / aq=1:1.00
Язык : English
Default : Да
Forced : Нет

Аудио
Идентификатор : 2
Формат : AC-3
Формат/Информация : Audio Coding 3
Коммерческое название : Dolby Digital
Идентификатор кодека : A_AC3
Продолжительность : 1 ч. 44 м.
Вид битрейта : Постоянный
Битрейт : 384 Кбит/сек
Каналы : 6 каналов
Channel layout : L R C LFE Ls Rs
Частота : 48,0 КГц
Частота кадров : 31,250 кадров/сек (1536 SPF)
Битовая глубина : 16 бит
Метод сжатия : С потерями
Размер потока : 287 Мбайт (7%)
Заголовок : DUB (Мост-Видео)
Язык : Russian
ServiceKind/String : Complete Main
Default : Да
Forced : Нет

Текст #1
Идентификатор : 3
Формат : UTF-8
Идентификатор кодека : S_TEXT/UTF8
Идентификатор кодека/Информация : UTF-8 Plain Text
Продолжительность : 1 ч. 37 м.
Битрейт : 71 бит/сек
ElementCount : 1032
Размер потока : 51,6 Кбайт (0%)
Язык : Russian
Default : Нет
Forced : Нет

Текст #2
Идентификатор : 4
Формат : UTF-8
Идентификатор кодека : S_TEXT/UTF8
Идентификатор кодека/Информация : UTF-8 Plain Text
Продолжительность : 1 ч. 37 м.
Битрейт : 48 бит/сек
ElementCount : 1026
Размер потока : 34,7 Кбайт (0%)
Язык : English
Default : Нет
Forced : Нет

Меню
00:00:00.000 : en:1. Taggert's Mission
00:04:00.000 : en:2. Rev's Hospitality
00:05:41.000 : en:3. Sick Child/UFOs
00:08:55.000 : en:4. Like "Deliverance"
00:12:19.000 : en:5. Two-Edged Welcome
00:16:04.000 : en:6. Offers Refused
00:18:12.000 : en:7. Too Many Snakes
00:20:13.000 : en:8. Orins Issue Orders
00:21:57.000 : en:9. Offer Reconsidered
00:26:22.000 : en:10. Handy with Wood
00:30:30.000 : en:11. Get to Know Sarah
00:34:23.000 : en:12. Cotton Tips Hand
00:40:16.000 : en:13. Dinner...with Earl
00:44:43.000 : en:14. Not Making Friends
00:48:38.000 : en:15. Hanner's the Rules
00:49:43.000 : en:16. Duelling Trucks
00:54:20.000 : en:17. Why Tagger's Here
00:58:43.000 : en:18. Music in the Park
01:01:28.000 : en:19. Junior's Bad Move
01:03:30.000 : en:20. Hanner Wants Talk
01:05:45.000 : en:21. Fire on the Hill
01:09:43.000 : en:22. True Intentions
01:13:08.000 : en:23. Mayhem in the Mine
01:18:34.000 : en:24. Blast Zone
01:20:07.000 : en:25. Escort for Sarah
01:22:49.000 : en:26. Tear Up The Joint
01:26:24.000 : en:27. No Problem/Return?
01:27:56.000 : en:28. Lay Down the Law
01:30:07.000 : en:29. Billiard Bedlam
01:33:12.000 : en:30. Crash The Casino
01:36:14.000 : en:31. Quick On The Draw
01:38:22.000 : en:32. As Promised

Просьба к переливающим на другие сайты, в оформлении указывайте пожалуйста авторство группы R.G. HD-Films pb.wtf



Скачать Огонь из преисподней через торрент http://c.radikal.ru/c19/1906/16/be576f40f079.jpg Скачать фильм Огонь из преисподней через торрент бесплантно в хорошем качестве Описание: В Аппалачах, в живописной долине, разворачивается действие этого жесткого боевика. Беспринципный магнат и его банда хозяйничают в ... 10 10 3
Торрент: Зарегистрирован [2020-09-02 13:47] · скачан: 28 раз
Статус: √ проверено
Размер: 4.3 GB
Как cкачать? Как скачать Огонь из преисподней через торрент | UTorrent

28-11-2019 20:33  

Отключить всю рекламу на сайте

02-09-2020 18:32 Огонь из преисподней Скачать торрент  

Спасибо большое за фильм с Сигалом!!! Так как он, в своё время, не выходил на BD, как и фильмы В смертельной опасности / On Deadly Ground 1994 г. и Мерцающий / The Glimmer Man 1996 г., то можно сказать, что на этом его фильмография для меня и закончилась. А эти три фильма, конечно, хочется иметь в коллекции. Благодарю за релиз!!!pb.wtf



    Дорогой пользователь! Огромная просьба, поблагодарите релизера, оцените раздачу и оставьте свои комментарий, если Вы скачали Огонь из преисподней через торрент бесплатно! Внесите свою лепту в развитие PiratBit!
    Комментировать посты могут только пользователи прошедшие не сложную регистрацию
    Показать сообщения:    

    Огонь из преисподней через торрент
    Скачать бесплатно Огонь из преисподней
    Огонь из преисподней скачать торрент
    Огонь из преисподней смотреть онлайн
    Cкачать фильм Огонь из преисподней бесплатно
    Огонь из преисподней скачать торрент в хорошем качестве
    Огонь из преисподней смотреть онлайн бесплатно в хорошем качестве


    Вы не можете начинать темы
    Вы не можете отвечать на сообщения
    Вы не можете редактировать свои сообщения
    Вы не можете удалять свои сообщения
    Вы не можете голосовать в опросах
    Вы не можете прикреплять файлы к сообщениям
    Вы можете скачивать файлы