Ссылка на приватное зеркало нашего сайта всего за 1$. Внимание количество ограничено!!!

2 сезон

iTunes

1 сезон

1

iTunes

iTunes

iTunes

1 сезон

RePack

30

ИГРА 18+

pack

ВАЖНО

!!Акция!!

Alien_RageХит недели

RePack

MK11
pack

Забери бонус

RePack

jed

!!Акция!!

Alien_Rage

RePack

fifa19

RePack

Assassins Creed: Odyssey

RePack

NEED FOR SPEED™ PAYBACK

4 сезон

9 сезон

Бесстыжие 9 сезон

Все сериалы

все сериалы на PB.wtf

RePack

FAR CRY 5
  

Птицелов / The Birdcatcher (Росс Кларк) [2019, Триллер, драма, военный, история, BDRip 720p] MVO (rus, ukr) [iTunes] pb.wtf

Птицелов через торрент pb.wtf

Раздают: 2 [ 0 KB/s ]
Размер: 6.06 GB | Добавлен: 1 мес. 18 д. назад | Торрент скачан:51 раз
Скачать  

02-09-2020 19:35 Птицелов Скачать торрент  

Птицелов | The Birdcatcher
Год выпуска: 2019
Страна: Норвегия, Великобритания
Выпущено: Garnet Girl, Motion Picture Capital
Жанр: Триллер, драма, военный, история
Продолжительность: 01:40:20
Перевод: Профессиональный (многоголосый) | iTunes
Субтитры: английские (форс. вшитые на немецкую речь, полные)

Режиссер: Росс Кларк

rating

В ролях: Сара-Софи Бусснина, Артур Хакалахти, Якоб Седергрен, Лаура Бирн, Аугуст Диль, Йоханнес Кунке, Андерс Баасмо Кристиансен, Андреа Брайн Ховиг, Йонас Хофф Офтебро, Тибо Ванденборре и др.

Описание: После оккупации Норвегии немцами Эстер потеряла родителей и была вынуждена бежать в леса, чтобы не оказаться в концентрационном лагере. Волею судьбы она оказывается на отдалённой ферме, где ей приходится изображать мальчика, скрывая свою личность от владельца-нациста.

Качество: BDRip 720p
Формат: MKV

Видео: x264, 1280x536, 7434 kbps, 23,976 fps
Аудио#1: русский, AC3, 5.1 ch, 48 kHz, 384 kbps | iTunes
Аудио#2: украинский, AC3, 5.1 ch, 48 kHz, 384 kbps | iTunes
Аудио#3: английский, AC3, 5.1 ch, 48 kHz, 448 kbps | оригинал
скриншот  скриншот  скриншот  скриншот  скриншот  

Общее
Уникальный идентификатор : 219904158877503561835327715500820495874 (0xA570001D57F3B70990B75E3C74977E02)
Полное имя : E:Torrent4PticelovBDRip720p.mkv
Формат : Matroska
Версия формата : Version 4 / Version 2
Размер файла : 6,06 Гбайт
Продолжительность : 1 ч. 40 м.
Общий поток : 8644 Кбит/сек
Дата кодирования : UTC 2020-09-02 19:15:41
Программа кодирования : mkvmerge v9.5.0 ('Quiet Fire') 64bit
Библиотека кодирования : libebml v1.3.4 + libmatroska v1.4.5

Видео
Идентификатор : 1
Формат : AVC
Формат/Информация : Advanced Video Codec
Профиль формата : High@L4.1
Настройки формата : CABAC / 12 Ref Frames
Параметр CABAC формата : Да
Параметр RefFrames формата : 12 кадров
Идентификатор кодека : V_MPEG4/ISO/AVC
Продолжительность : 1 ч. 40 м.
Битрейт : 7434 Кбит/сек
Ширина : 1280 пикселей
Высота : 536 пикселей
Соотношение сторон : 2,40:1
Режим частоты кадров : Постоянный
Частота кадров : 23,976 (23976/1000) кадра/сек
Цветовое пространство : YUV
Субдискретизация насыщенности : 4:2:0
Битовая глубина : 8 бит
Тип развёртки : Прогрессивная
Бит/(Пиксели*Кадры) : 0.452
Размер потока : 5,20 Гбайт (86%)
Заголовок : Sisendrovich(R)
Библиотека кодирования : x264 core 161 r3018 db0d417
Настройки программы : cabac=1 / ref=12 / deblock=1:-1:-1 / analyse=0x3:0x133 / me=tesa / subme=11 / psy=1 / psy_rd=1.00:0.00 / mixed_ref=1 / me_range=32 / chroma_me=1 / trellis=2 / 8x8dct=1 / cqm=0 / deadzone=21,11 / fast_pskip=0 / chroma_qp_offset=-2 / threads=17 / lookahead_threads=4 / sliced_threads=0 / nr=0 / decimate=0 / interlaced=0 / bluray_compat=0 / constrained_intra=0 / bframes=14 / b_pyramid=2 / b_adapt=2 / b_bias=0 / direct=3 / weightb=1 / open_gop=0 / weightp=2 / keyint=240 / keyint_min=23 / scenecut=40 / intra_refresh=0 / rc_lookahead=60 / rc=2pass / mbtree=0 / bitrate=7434 / ratetol=1.0 / qcomp=0.70 / qpmin=0 / qpmax=69 / qpstep=4 / cplxblur=20.0 / qblur=0.5 / vbv_maxrate=50000 / vbv_bufsize=62500 / nal_hrd=none / filler=0 / ip_ratio=1.40 / pb_ratio=1.30 / aq=3:0.80
Язык : English
Default : Да
Forced : Нет

Аудио #1
Идентификатор : 2
Формат : AC-3
Формат/Информация : Audio Coding 3
Параметр Endianness формата : Big
Идентификатор кодека : A_AC3
Продолжительность : 1 ч. 40 м.
Вид битрейта : Постоянный
Битрейт : 384 Кбит/сек
Каналы : 6 каналов
Расположение каналов : Front: L C R, Side: L R, LFE
Частота : 48,0 КГц
Частота кадров : 31,250 кадров/сек (1536 SPF)
Битовая глубина : 16 бит
Метод сжатия : С потерями
Размер потока : 275 Мбайт (4%)
Заголовок : rus
Язык : Russian
Default : Да
Forced : Нет

Аудио #2
Идентификатор : 3
Формат : AC-3
Формат/Информация : Audio Coding 3
Параметр Endianness формата : Big
Идентификатор кодека : A_AC3
Продолжительность : 1 ч. 40 м.
Вид битрейта : Постоянный
Битрейт : 384 Кбит/сек
Каналы : 6 каналов
Расположение каналов : Front: L C R, Side: L R, LFE
Частота : 48,0 КГц
Частота кадров : 31,250 кадров/сек (1536 SPF)
Битовая глубина : 16 бит
Метод сжатия : С потерями
Размер потока : 275 Мбайт (4%)
Заголовок : ukr
Язык : Ukrainian
Default : Нет
Forced : Нет

Аудио #3
Идентификатор : 4
Формат : AC-3
Формат/Информация : Audio Coding 3
Параметр Endianness формата : Big
Идентификатор кодека : A_AC3
Продолжительность : 1 ч. 40 м.
Вид битрейта : Постоянный
Битрейт : 448 Кбит/сек
Каналы : 6 каналов
Расположение каналов : Front: L C R, Side: L R, LFE
Частота : 48,0 КГц
Частота кадров : 31,250 кадров/сек (1536 SPF)
Битовая глубина : 16 бит
Метод сжатия : С потерями
Размер потока : 322 Мбайт (5%)
Заголовок : eng
Язык : English
Default : Нет
Forced : Нет

Текст
Идентификатор : 5
Формат : UTF-8
Идентификатор кодека : S_TEXT/UTF8
Идентификатор кодека/Информация : UTF-8 Plain Text
Продолжительность : 1 ч. 32 м.
Битрейт : 34 бит/сек
ElementCount : 959
Размер потока : 23,8 Кбайт (0%)
Заголовок : engFull
Язык : English
Default : Нет
Forced : Нет

Меню
00:00:00.000 : en:Chapter 01
00:09:50.214 : en:Chapter 02
00:20:34.775 : en:Chapter 03
00:29:48.620 : en:Chapter 04
00:40:04.318 : en:Chapter 05
00:50:30.819 : en:Chapter 06
00:59:31.818 : en:Chapter 07
01:10:40.361 : en:Chapter 08
01:20:07.010 : en:Chapter 09
01:30:13.199 : en:Chapter 10
01:34:10.519 : en:Chapter 11

pb.wtf



Скачать Птицелов через торрент http://lostpix.com/thumbs/2020-09/02/3y2fqhjh75d6gobkr5w1tre3o.png Скачать фильм Птицелов через торрент бесплантно в хорошем качестве Описание: После оккупации Норвегии немцами Эстер потеряла родителей и была вынуждена бежать в леса, чтобы не оказаться в концентрационном ... 10 10 2
Торрент: Зарегистрирован [2020-09-02 19:35] · скачан: 51 раз
Статус: √ проверено
Размер: 6.06 GB
Как cкачать? Как скачать Птицелов через торрент | qTorrent

% Раздел Тема Автор DL S | L
Фильмы 2019-2020 [DVDrip, WEB-DLRip, HDrip] (DUB, MVO) [ 1.42 GB ] Птицелов / The Birdcatcher [2019 военный история BDRip] MVO Twi7ter Скачать
14 | 0
Фильмы 2019-2020 [DVDrip, WEB-DLRip, HDrip] (DUB, MVO) [ 745 MB ] Птицелов / The Birdcatcher [2019 военный история HDRip] MVO bober100 Скачать
5 | 0
Фильмы 2019-2020 [DVDrip, WEB-DLRip, HDrip] (DUB, MVO) [ 1.46 GB ] Птицелов / The Birdcatcher [2019 военный история BDRip] MVO bober100 Скачать
4 | 0
Фильмы [HD 720p, 1080p] (Хороший звук DUB, MVO) [ 12.04 GB ] Птицелов / The Birdcatcher [2019 военный история BDRip 1080p] MVO bober100 Скачать
1 | 0

28-11-2019 20:33  

Отключить всю рекламу на сайте

    Дорогой пользователь! Огромная просьба, поблагодарите релизера, оцените раздачу и оставьте свои комментарий, если Вы скачали Птицелов через торрент бесплатно! Внесите свою лепту в развитие PiratBit!
    Комментировать посты могут только пользователи прошедшие не сложную регистрацию
    Показать сообщения:    

    Птицелов через торрент
    Скачать бесплатно Птицелов
    Птицелов скачать торрент
    Птицелов смотреть онлайн
    Cкачать фильм Птицелов бесплатно
    Птицелов скачать торрент в хорошем качестве
    Птицелов смотреть онлайн бесплатно в хорошем качестве


    Вы не можете начинать темы
    Вы не можете отвечать на сообщения
    Вы не можете редактировать свои сообщения
    Вы не можете удалять свои сообщения
    Вы не можете голосовать в опросах
    Вы не можете прикреплять файлы к сообщениям
    Вы можете скачивать файлы