Ссылка на приватное зеркало нашего сайта всего за 1$. Внимание количество ограничено!!!

2 сезон

iTunes

1 сезон

1

iTunes

iTunes

iTunes

1 сезон

RePack

30

ИГРА 18+

pack

ВАЖНО

!!Акция!!

Alien_RageХит недели

RePack

MK11
pack

Забери бонус

RePack

jed

!!Акция!!

Alien_Rage

RePack

fifa19

RePack

Assassins Creed: Odyssey

RePack

NEED FOR SPEED™ PAYBACK

4 сезон

9 сезон

Бесстыжие 9 сезон

Все сериалы

все сериалы на PB.wtf

RePack

FAR CRY 5
  

Паломничество / Pilgrimage (Брендан Малдауни) [2017, драма, приключения, BDRip 720p] MVO [Good People], VO [Парижанин] - ExKinoRay pb.wtf

Паломничество через торрент pb.wtf

Раздают: 26 [ 0 KB/s ] Качают: 1 [ 0 KB/s ]
Размер: 4.29 GB | Добавлен: 1 мес. 18 д. назад | Торрент скачан:96 раз
Скачать  

03-09-2020 04:32 Паломничество Скачать торрент  

Название: Паломничество
Оригинальное название: Pilgrimage
Год выхода: 2017
Жанр: драма, приключения, история
Режиссер: Брендан Малдауни
В ролях: Том Холланд, Джон Бернтал, Ричард Армитедж, Стэнли Вебер, Джон Линч, Хью О’Конор, Лохлэйнн О’Меарайн, Эрик Годон, Руайдри Конрой, Питер Косгров

Описание: Ирландия. 1209 год. Остров на краю света. Небольшая группа монахов отправляется в вынужденное паломничество через остров, который рвут на части тянущаяся столетиями племенная война и растущая мощь нормандских захватчиков. Они сопровождают священную реликвию своего монастыря — камень, который использовался в мученичестве Святого Матиаса, тринадцатого апостола, в Рим. Путешествие монахов показано глазами благочестивых юных новичков и немого (или молчаливого) келейника с жестоким прошлым.

По мере их продвижения выясняется истинное материальное, политическое и религиозное значение драгоценной реликвии, и их путь к восточному побережью становится все более опасным. Монахи с опозданием понимают, что в этой дикой земле древних суеверий, вера, которая связывает их вместе, в конечном итоге может привести их к гибели.


rating

Страна: Ирландия / Savage Productions, Irish Film Board, Centre du Cinéma et de l'Audiovisuel de la Fédération Wallonie-Bruxelles
Продолжительность: 01:36:03
Перевод: Профессиональный (многоголосый, закадровый) Good People
Любительский одноголосый (В. Парижанин)
Субтитры: Русские (lexandros), английские (на диалоги на ирландском языке - неотключаемые)

Формат: MKV
Качество: BDRip 720p
Видео: MPEG-4 AVC, 1280x536 (2.40:1), 23.976 fps, 4925 Kbps, 0.299 bit/pixel
Аудио #01: 48 kHz, AC3, 5.1, 448 Kbps | MVO | RUS |
Аудио #02: 48 kHz, AC3, 5.1, 448 Kbps | VO | RUS |
Аудио #03: 48 kHz, AC3, 5.1, 448 Kbps | Оригинал | ENG |
General
Unique ID : 232120298057977429012139541557450751307 (0xAEA0BE47239521439C60EFA22711BD4B)
Complete name : D:\Паломничество.2017.2xRus.BDRip.720p.ExKinoRay.mkv
Format : Matroska
Format version : Version 2
File size : 4.29 GiB
Duration : 1 h 36 min
Overall bit rate : 6 397 kb/s
Movie name : Паломничество 2017 from ExKinoRay
Encoded date : UTC 2020-09-03 03:43:27
Writing application : mkvmerge v5.6.0 ('Kenya Kane') built on May 27 2012 16:44:04
Writing library : libebml v1.2.3 + libmatroska v1.3.0
Attachments : front.jpg

Video
ID : 1
Format : AVC
Format/Info : Advanced Video Codec
Format profile : High@L4.1
Format settings, CABAC : Yes
Format settings, ReFrames : 12 frames
Codec ID : V_MPEG4/ISO/AVC
Duration : 1 h 36 min
Bit rate : 4 925 kb/s
Width : 1 280 pixels
Height : 536 pixels
Display aspect ratio : 2.40:1
Frame rate mode : Constant
Frame rate : 23.976 (23976/1000) FPS
Color space : YUV
Chroma subsampling : 4:2:0
Bit depth : 8 bits
Scan type : Progressive
Bits/(Pixel*Frame) : 0.299
Stream size : 3.30 GiB (77%)
Title : Enigma
Writing library : x264 core 152 r2851 ba24899
Encoding settings : cabac=1 / ref=12 / deblock=1:-2:-2 / analyse=0x3:0x113 / me=umh / subme=10 / psy=1 / psy_rd=0.97:0.08 / mixed_ref=1 / me_range=32 / chroma_me=1 / trellis=2 / 8x8dct=1 / cqm=0 / deadzone=21,11 / fast_pskip=1 / chroma_qp_offset=-3 / threads=12 / lookahead_threads=3 / sliced_threads=0 / nr=0 / decimate=1 / interlaced=0 / bluray_compat=0 / constrained_intra=0 / bframes=12 / b_pyramid=2 / b_adapt=2 / b_bias=0 / direct=1 / weightb=1 / open_gop=0 / weightp=2 / keyint=240 / keyint_min=23 / scenecut=40 / intra_refresh=0 / rc=crf / mbtree=0 / crf=17.8 / qcomp=0.60 / qpmin=0 / qpmax=51 / qpstep=4 / ip_ratio=1.30 / pb_ratio=1.20 / aq=2:0.90
Language : English
Default : Yes
Forced : No
Color range : Limited
Color primaries : BT.709
Transfer characteristics : BT.709
Matrix coefficients : BT.709

Audio #1
ID : 2
Format : AC-3
Format/Info : Audio Coding 3
Mode extension : CM (complete main)
Format settings, Endianness : Big
Codec ID : A_AC3
Duration : 1 h 36 min
Bit rate mode : Constant
Bit rate : 448 kb/s
Channel(s) : 6 channels
Channel positions : Front: L C R, Side: L R, LFE
Sampling rate : 48.0 kHz
Frame rate : 31.250 FPS (1536 spf)
Compression mode : Lossy
Stream size : 308 MiB (7%)
Title : MVO (Good People)
Language : Russian
Default : Yes
Forced : No

Audio #2
ID : 3
Format : AC-3
Format/Info : Audio Coding 3
Mode extension : CM (complete main)
Format settings, Endianness : Big
Codec ID : A_AC3
Duration : 1 h 36 min
Bit rate mode : Constant
Bit rate : 448 kb/s
Channel(s) : 6 channels
Channel positions : Front: L C R, Side: L R, LFE
Sampling rate : 48.0 kHz
Frame rate : 31.250 FPS (1536 spf)
Compression mode : Lossy
Stream size : 308 MiB (7%)
Title : VO (Parighanin)
Language : Russian
Default : No
Forced : No

Audio #3
ID : 4
Format : AC-3
Format/Info : Audio Coding 3
Mode extension : CM (complete main)
Format settings, Endianness : Big
Codec ID : A_AC3
Duration : 1 h 36 min
Bit rate mode : Constant
Bit rate : 448 kb/s
Channel(s) : 6 channels
Channel positions : Front: L C R, Side: L R, LFE
Sampling rate : 48.0 kHz
Frame rate : 31.250 FPS (1536 spf)
Compression mode : Lossy
Stream size : 308 MiB (7%)
Language : English
Default : No
Forced : No

Text
ID : 5
Format : UTF-8
Codec ID : S_TEXT/UTF8
Codec ID/Info : UTF-8 Plain Text
Title : Full (lexandros)
Language : Russian
Default : No
Forced : No

Menu
00:00:00.000 : en:Глава 01
00:07:21.983 : en:Глава 02
00:13:05.701 : en:Глава 03
00:21:22.614 : en:Глава 04
00:28:29.332 : en:Глава 05
00:35:38.886 : en:Глава 06
00:41:28.068 : en:Глава 07
00:50:40.370 : en:Глава 08
01:06:31.737 : en:Глава 09
01:15:08.420 : en:Глава 10
01:21:07.779 : en:Глава 11
01:26:57.879 : en:Глава 12
Без какой-либо рекламы!



Релиз от:

Автор релиза: pb.wtf



Скачать Паломничество через торрент https://i93.fastpic.ru/big/2017/0704/63/2d025d6476a8af7ce53e361fbf540863.jpg Скачать фильм Паломничество через торрент бесплантно в хорошем качестве Описание: Ирландия. 1209 год. Остров на краю света. Небольшая группа монахов отправляется в вынужденное паломничество через остров, ... 10 10 2
Info! Золотая раздача, скачанное не засчитывается.
Торрент: Зарегистрирован [2020-09-03 04:32] · скачан: 96 раз
Статус: √ проверено
Размер: 4.29 GB
Как cкачать? Как скачать Паломничество через торрент | qTorrent

28-11-2019 20:33  

Отключить всю рекламу на сайте

    Дорогой пользователь! Огромная просьба, поблагодарите релизера, оцените раздачу и оставьте свои комментарий, если Вы скачали Паломничество через торрент бесплатно! Внесите свою лепту в развитие PiratBit!
    Комментировать посты могут только пользователи прошедшие не сложную регистрацию
    Показать сообщения:    

    Паломничество через торрент
    Скачать бесплатно Паломничество
    Паломничество скачать торрент
    Паломничество смотреть онлайн
    Cкачать фильм Паломничество бесплатно
    Паломничество скачать торрент в хорошем качестве
    Паломничество смотреть онлайн бесплатно в хорошем качестве


    Вы не можете начинать темы
    Вы не можете отвечать на сообщения
    Вы не можете редактировать свои сообщения
    Вы не можете удалять свои сообщения
    Вы не можете голосовать в опросах
    Вы не можете прикреплять файлы к сообщениям
    Вы можете скачивать файлы