Ссылка на приватное зеркало нашего сайта всего за 1$. Внимание количество ограничено!!!

2 сезон

iTunes

1 сезон

1

2 сезон

2 сезон

iTunes

1 сезон

RePack

30

Ultimate

ВАЖНО

ИГРА 18+

pack

RePack

MK11
pack

Забери бонус

RePack

jed

!!Акция!!

Alien_Rage

RePack

fifa19

RePack

Assassins Creed: Odyssey

RePack

NEED FOR SPEED™ PAYBACK

4 сезон

9 сезон

Бесстыжие 9 сезон

Все сериалы

все сериалы на PB.wtf

RePack

FAR CRY 5
  

Ключ времени (Алексей Тельнов) [2019, приключения, фэнтези, WEB-DLRip-AVC] [iTunes] pb.wtf

Ключ времени через торрент pb.wtf

Раздают: 5 [ 7 KB/s ]
Размер: 1.46 GB | Добавлен: 2 мес. 23 д. назад | Торрент скачан:156 раз
Скачать  

03-09-2020 14:15 Ключ времени Скачать торрент  

Ключ времени

Год выхода: 2019
Жанр: Приключения, фэнтези
Страна: Россия
Студия: Открытая киностудия «Лендок»
Продолжительность: 01:32:32
Перевод: Не требуется | iTunes

Режиссер: Алексей Тельнов

В ролях: Ксения Алексеева, Павел Трубинер, Любовь Толкалина, Артём Ткаченко, Марина Казанкова, Оксана Базилевич, Анатолий Кондюбов, Екатерина Байгозина

О фильме:
Бездетные супруги писатель Андрей и художница Ольга удочеряют восьмилетнюю Ксюшу. Директором детского дома, где воспитывалась девочка, оказывается бывшая подруга Андрея Ирена. Она до сих пор страстно любит Андрея и намерена вернуть его любой ценой, пускай для этого придётся разрушить его семейное счастье. Тем временем Андрей сочиняет фантастический роман о темной стороне Петербурга. На страницах его книги город на Неве превращается в фантасмагорический мир, где само время остановилось, а улицы населяют бездушные твари. Внезапно Ксюша попадает в мир «темного Петербурга» из романа Андрея, где встречает таинственного друга Парамона. Героев ждёт немало опасных приключений…



Качество: WEB-DLRip-AVC
Формат: MKV
Видео: 1024x428 (2,40:1), 24 fps, MPEG-4 AVC, 2068 Кbps avg, 0.197 bit/pixel
Аудио: AC3, 48 kHz, 2 ch, ~192.00 kbps avg | русский | iTunes
Общее

Уникальный идентификатор : 192870905215056092727186390411490098048 (0x911995CE0F5709E57ABFC49E28E3FB80)

Полное имя : Cluch.vremeni.2019.iT.WEB-DLRip.1.46Gb.x264mkv.mkv

Формат : Matroska

Версия формата : Version 4

Размер файла : 1,46 Гбайт

Продолжительность : 1 ч. 32 м.

Общий поток : 2 263 Кбит/сек

Название фильма : Ключ времени (2019)

Дата кодирования : UTC 2020-09-03 12:19:31

Программа кодирования : mkvmerge v47.0.0 ('Black Flag') 64-bit

Библиотека кодирования : libebml v1.3.10 + libmatroska v1.5.2

Обложка : Yes

Attachments : cover.jpg

Видео

Идентификатор : 1

Формат : AVC

Формат/Информация : Advanced Video Codec

Профиль формата : High@L4.1

Настройки формата : CABAC / 9 Ref Frames

Параметр CABAC формата : Да

Параметр RefFrames формата : 9 кадров

Идентификатор кодека : V_MPEG4/ISO/AVC

Продолжительность : 1 ч. 32 м.

Битрейт : 2 068 Кбит/сек

Ширина : 1 024 пикселя

Высота : 428 пикселей

Соотношение сторон : 2,40:1

Режим частоты кадров : Постоянный

Частота кадров : 24,000 кадра/сек

Цветовое пространство : YUV

Субдискретизация насыщенности : 4:2:0

Битовая глубина : 8 бит

Тип развёртки : Прогрессивная

Бит/(Пиксели*Кадры) : 0.197

Размер потока : 1,34 Гбайт (91%)

Заголовок : #stillet

Библиотека кодирования : x264 core 152 r2851bm ba24899

Настройки программы : cabac=1 / ref=9 / deblock=1:-2:-2 / analyse=0x3:0x113 / me=umh / subme=10 / psy=1 / psy_rd=1.00:0.15 / mixed_ref=1 / me_range=32 / chroma_me=1 / trellis=2 / 8x8dct=1 / cqm=0 / deadzone=21,11 / fast_pskip=0 / chroma_qp_offset=-3 / threads=8 / lookahead_threads=3 / sliced_threads=0 / nr=0 / decimate=0 / interlaced=0 / bluray_compat=0 / constrained_intra=0 / bframes=10 / b_pyramid=2 / b_adapt=2 / b_bias=0 / direct=3 / weightb=1 / open_gop=0 / weightp=2 / keyint=240 / keyint_min=24 / scenecut=40 / intra_refresh=0 / rc=2pass / mbtree=0 / bitrate=2068 / ratetol=1.0 / qcomp=0.60 / qpmin=0 / qpmax=69 / qpstep=4 / cplxblur=20.0 / qblur=0.5 / ip_ratio=1.40 / pb_ratio=1.30 / aq=1:1.00

Язык : English

Default : Да

Forced : Нет

Аудио

Идентификатор : 2

Формат : AC-3

Формат/Информация : Audio Coding 3

Коммерческое название : Dolby Digital

Идентификатор кодека : A_AC3

Продолжительность : 1 ч. 32 м.

Вид битрейта : Постоянный

Битрейт : 192 Кбит/сек

Каналы : 2 канала

Channel layout : L R

Частота : 48,0 КГц

Частота кадров : 31,250 кадров/сек (1536 SPF)

Метод сжатия : С потерями

Размер потока : 127 Мбайт (8%)

Заголовок : iTunes

Язык : Russian

Service kind : Complete Main

Default : Да

Forced : Нет

Меню

00:00:00.000 : en:Глава 1

00:06:36.458 : en:Глава 2

00:15:16.833 : en:Глава 3

00:21:05.166 : en:Глава 4

00:30:01.374 : en:Глава 5

00:38:41.707 : en:Глава 6

00:44:24.498 : en:Глава 7

00:51:40.748 : en:Глава 8

00:57:39.956 : en:Глава 9

01:03:56.289 : en:Глава 10

01:09:59.830 : en:Глава 11

01:18:40.955 : en:Глава 12

01:23:41.371 : en:Глава 13
скриншот  скриншот  скриншот  
pb.wtf



Скачать Ключ времени через торрент https://i3.imageban.ru/out/2020/09/03/f66fefef6829042fb9a9d87fedd3e093.png Скачать фильм Ключ времени через торрент бесплантно в хорошем качестве О фильме:Бездетные супруги писатель Андрей и художница Ольга удочеряют восьмилетнюю Ксюшу. Директором детского дома, где воспитывалась ... 10 10 7
Торрент: Зарегистрирован [2020-09-03 14:15] · скачан: 156 раз
Статус: √ проверено
Размер: 1.46 GB
Как cкачать? Как скачать Ключ времени через торрент | qTorrent

% Раздел Тема Автор DL S | L
Фильмы 2017 [DVDrip, WEB-DLRip, HDrip] (DUB, MVO) [ 1.77 GB ] Ловушка времени / Time Trap [2017 BDRip-AVC] MVO [HDRezka Studio] bober100 Скачать
6 | 0
Зарубежные сериалы [ 30.84 GB ] Вне времени / Timeless / Сезон: 2 / Серии: 1-12 из 12 [2018 WEB-DL 1080p] MVO [LostFilm] bober100 Скачать
1 | 0
Зарубежные сериалы [ 6.37 GB ] Вне времени / Timeless / Сезон: 2 / Серии: 1-12 из 12 [2018 WEB-DLRip] MVO [LostFilm] bober100 Скачать
1 | 0
Фильмы 2010 [ 1.51 GB ] Принц Персии: Пески времени / Prince of Persia: The Sands of Time [2010 HDRip-AVC] Dean24 Скачать
1 | 0
T Фильмы [HD 720p, 1080p] (Хороший звук DUB, MVO) [ 4.75 GB ] Ловушка времени / Time Trap [2017 BDRip 720p] - MVO [HDRezka Studio] PROCTOLOG Скачать
2 | 0
T Ultra HD (UHD: 2K, 4K, 8K) — видео сверхвысокой чёткости [ 19.58 GB ] Ловушка времени / Time Trap [2017 UHD WEBRip 2160p] 2xMVO [Синема УС HDRezka Studio] bober100 Скачать
2 | 0
Наши фильмы (HD, WEB-DL 720p, 1080p) [ 3.54 GB ] Владыка времени [2015 WEB-DL 1080p] -Lexx- Скачать
1 | 0

28-11-2019 20:33  

Отключить всю рекламу на сайте

    Дорогой пользователь! Огромная просьба, поблагодарите релизера, оцените раздачу и оставьте свои комментарий, если Вы скачали Ключ времени через торрент бесплатно! Внесите свою лепту в развитие PiratBit!
    Комментировать посты могут только пользователи прошедшие не сложную регистрацию
    Показать сообщения:    

    Ключ времени через торрент
    Скачать бесплатно Ключ времени
    Ключ времени скачать торрент
    Ключ времени смотреть онлайн
    Cкачать фильм Ключ времени бесплатно
    Ключ времени скачать торрент в хорошем качестве
    Ключ времени смотреть онлайн бесплатно в хорошем качестве


    Вы не можете начинать темы
    Вы не можете отвечать на сообщения
    Вы не можете редактировать свои сообщения
    Вы не можете удалять свои сообщения
    Вы не можете голосовать в опросах
    Вы не можете прикреплять файлы к сообщениям
    Вы можете скачивать файлы