Ссылка на приватное зеркало нашего сайта всего за 1$. Внимание количество ограничено!!!

2 сезон

iTunes

1 сезон

1

2 сезон

2 сезон

iTunes

1 сезон

RePack

30

Новинка

ВАЖНО

ИГРА 18+

pack

RePack

MK11
pack

Забери бонус

RePack

jed

!!Акция!!

Alien_Rage

RePack

fifa19

RePack

Assassins Creed: Odyssey

RePack

NEED FOR SPEED™ PAYBACK

4 сезон

9 сезон

Бесстыжие 9 сезон

Все сериалы

все сериалы на PB.wtf

RePack

FAR CRY 5
  

Видовс Пойнт / Widow's Point (Грег Ламберсон) [2019, Триллер, WEB-DL 1080p] MVO ["Синема УС"] pb.wtf

Видовс Пойнт через торрент pb.wtf

Размер: 3.44 GB | Добавлен: 2 мес. 27 д. назад | Торрент скачан:52 раза
Скачать  

03-09-2020 17:54 Видовс Пойнт Скачать торрент  

Видовс Пойнт | Widow's Point
Год выпуска: 2019
Страна: США
Студия: Kwakutl Films
Жанр: Триллер
Продолжительность: 01:27:47
Перевод: Любительский (многоголосый) | "Синема УС"
Субтитры: Английские

Режиссер: Грег Ламберсон

rating

В ролях: Крэйг Шеффер, КейтЛинн Ньюберри, Доминик Люонго, Каелин Ламберсон, Джон Ренна, Ричард Саттервайт, Майкл Турбер, Уиллоу Анвар, Ким Пьяцца, Пол МакГиннис

Описание: Писатель, специализирующийся на жанре ужасов, ради пиара будущей книги решает провести три дня взаперти на печально известном маяке Видовс Пойнт, где на протяжении десятилетий таинственным и трагическим образом погибали люди. Однако, сверхъестественные силы, обитающие на нём, решают преподать незваному гостю кровавый урок.

Качество: WEB-DL 1080p
Формат: MKV

Видео: MPEG-4 AVC, 5032 Кбит/с, 1908x1068, 23.976 кадр/с
Аудио#1: AC3, 48 Гц, 192 Кбит/сек, 2 ch (L + R) | MVO | Синема Ус
Аудио#2: AC3, 48 Гц, 384 Кбит/сек, 6 ch (L C R, + L R, LFE) | Английский
скриншот  скриншот  скриншот  скриншот  скриншот  

Общее
Уникальный идентификатор : 112395701677816937853137832773517270481 (0x548E9FEF7F07F99C56045C67EFBB5DD1)
Полное имя : D:ТоррентыWidows.Point.2020.1080p.WEB-DL.DD5.1.H.264-EVO[EtHD]Widows.Point.2020.x264.WEB-DL(1080p)-MediaBit.mkv
Формат : Matroska
Версия формата : Version 4
Размер файла : 3,44 Гбайт
Продолжительность : 1 ч. 27 м.
Общий поток : 5 610 Кбит/сек
Название фильма : Видовс Пойнт / Widow's Point (2019)
Дата кодирования : UTC 2020-09-03 12:19:52
Программа кодирования : mkvmerge v25.0.0 ('Prog Noir') 64-bit
Библиотека кодирования : libebml v1.3.6 + libmatroska v1.4.9

Видео
Идентификатор : 1
Формат : AVC
Формат/Информация : Advanced Video Codec
Профиль формата : High@L4
Настройки формата : CABAC / 4 Ref Frames
Параметр CABAC формата : Да
Параметр RefFrames формата : 4 кадра
Идентификатор кодека : V_MPEG4/ISO/AVC
Продолжительность : 1 ч. 27 м.
Битрейт : 5 032 Кбит/сек
Ширина : 1 908 пикселей
Высота : 1 068 пикселей
Соотношение сторон : 16:9
Режим частоты кадров : Постоянный
Частота кадров : 23,976 (24000/1001) кадра/сек
Цветовое пространство : YUV
Субдискретизация насыщенности : 4:2:0
Битовая глубина : 8 бит
Тип развёртки : Прогрессивная
Бит/(Пиксели*Кадры) : 0.103
Размер потока : 3,09 Гбайт (90%)
Заголовок : EVO
Язык : English
Default : Да
Forced : Нет
Цветовой диапазон : Limited
Основные цвета : BT.709
Характеристики трансфера : BT.709
Коэффициенты матрицы : BT.709

Аудио #1
Идентификатор : 2
Формат : AC-3
Формат/Информация : Audio Coding 3
Коммерческое название : Dolby Digital
Идентификатор кодека : A_AC3
Продолжительность : 1 ч. 27 м.
Вид битрейта : Постоянный
Битрейт : 192 Кбит/сек
Каналы : 2 канала
Channel layout : L R
Частота : 48,0 КГц
Частота кадров : 31,250 кадров/сек (1536 SPF)
Метод сжатия : С потерями
Задержка видео : -42 мс.
Размер потока : 121 Мбайт (3%)
Заголовок : MVO [Синема УС] MediaBit
Язык : Russian
Service kind : Complete Main
Default : Да
Forced : Нет

Аудио #2
Идентификатор : 3
Формат : AC-3
Формат/Информация : Audio Coding 3
Коммерческое название : Dolby Digital
Идентификатор кодека : A_AC3
Продолжительность : 1 ч. 27 м.
Вид битрейта : Постоянный
Битрейт : 384 Кбит/сек
Каналы : 6 каналов
Channel layout : L R C LFE Ls Rs
Частота : 48,0 КГц
Частота кадров : 31,250 кадров/сек (1536 SPF)
Метод сжатия : С потерями
Задержка видео : -42 мс.
Размер потока : 241 Мбайт (7%)
Язык : English
Service kind : Complete Main
Default : Нет
Forced : Нет

Текст
Идентификатор : 4
Формат : UTF-8
Идентификатор кодека : S_TEXT/UTF8
Идентификатор кодека/Информация : UTF-8 Plain Text
Продолжительность : 1 ч. 27 м.
Битрейт : 42 бит/сек
Count of elements : 1047
Размер потока : 27,2 Кбайт (0%)
Язык : English
Default : Нет
Forced : Нет

Меню
00:00:00.000 : en:1
00:01:57.000 : en:2
00:12:09.000 : en:3
00:19:56.000 : en:4
00:27:19.000 : en:5
00:37:40.000 : en:6
00:45:13.000 : en:7
00:54:54.000 : en:8
01:05:41.000 : en:9
01:14:58.000 : en:10
01:26:04.000 : en:11

pb.wtf



Скачать Видовс Пойнт через торрент https://c.radikal.ru/c31/2009/ce/4355fcb09f87.jpg Скачать фильм Видовс Пойнт через торрент бесплантно в хорошем качестве Описание: Писатель, специализирующийся на жанре ужасов, ради пиара будущей книги решает провести три дня взаперти на печально известном ... 7.8 10 5
Торрент: Зарегистрирован [2020-09-03 17:54] · скачан: 52 раз
Статус: T временная
Размер: 3.44 GB
Как cкачать? Как скачать Видовс Пойнт через торрент | qTorrent

28-11-2019 20:33  

Отключить всю рекламу на сайте

    Дорогой пользователь! Огромная просьба, поблагодарите релизера, оцените раздачу и оставьте свои комментарий, если Вы скачали Видовс Пойнт через торрент бесплатно! Внесите свою лепту в развитие PiratBit!
    Комментировать посты могут только пользователи прошедшие не сложную регистрацию
    Показать сообщения:    

    Видовс Пойнт через торрент
    Скачать бесплатно Видовс Пойнт
    Видовс Пойнт скачать торрент
    Видовс Пойнт смотреть онлайн
    Cкачать фильм Видовс Пойнт бесплатно
    Видовс Пойнт скачать торрент в хорошем качестве
    Видовс Пойнт смотреть онлайн бесплатно в хорошем качестве


    Вы не можете начинать темы
    Вы не можете отвечать на сообщения
    Вы не можете редактировать свои сообщения
    Вы не можете удалять свои сообщения
    Вы не можете голосовать в опросах
    Вы не можете прикреплять файлы к сообщениям
    Вы можете скачивать файлы