Ссылка на приватное зеркало нашего сайта всего за 1$. Внимание количество ограничено!!!

2 сезон

iTunes

1 сезон

1

2 сезон

2 сезон

iTunes

1 сезон

RePack

30

Новинка

ВАЖНО

ИГРА 18+

pack

RePack

MK11
pack

Забери бонус

RePack

jed

!!Акция!!

Alien_Rage

RePack

fifa19

RePack

Assassins Creed: Odyssey

RePack

NEED FOR SPEED™ PAYBACK

4 сезон

9 сезон

Бесстыжие 9 сезон

Все сериалы

все сериалы на PB.wtf

RePack

FAR CRY 5
  

Диджей Золушка / Cinderela Pop (Бруно Гаротти) [2019, Мелодрама, семейный, WEB-DLRip-AVC] [DUB] [Лицензия ] от MediaBit pb.wtf

Диджей Золушка через торрент pb.wtf

Раздают: 1 [ 0 KB/s ]
Размер: 1.89 GB | Добавлен: 3 мес. 1 д. назад | Торрент скачан:37 раз
Скачать  

03-09-2020 18:42 Диджей Золушка Скачать торрент  


Диджей Золушка / Cinderela Pop
Информация о фильме:
Название: Диджей Золушка
Оригинальное название: Cinderela Pop
Год выхода: 2019
Жанр: Мелодрама, семейный
Режиссер: Бруно Гаротти

В ролях: Майса Сильва, Филипе Браганса, Фернанда Паэс Леме, Летисия Фариа Педро, Кирия Мальейрош, Элиза Пиньейру, Жиованна Грижио, Мириам Фриланд, Марсело Валле, Барбара Майа

Описание: Синтия Тирелла — обычная девочка, которая жила в мире грез и сказок. В ее мирке не было места злу, но все изменилось, после того как ее родители решили развесить. Она не представляла их по отдельности друг от друга, и эта новость стала для нее сильным ударом. Девочка замкнулась в себе и перестала общаться с друзьями. Только волшебное звучание музыки позволяло ей на некоторое время забыть обо всех проблемах. Казалось, что ничто не сможет вывести ее из депрессивного состояния, но вскоре в ее жизни появился певец, Фредди Принц. Именно ему удается сделать невозможное и привнести в жизнь девочки новые краски...

rating

Страна: Бразилия
Студия: Panorâmica
Продолжительность: 01:36:44
Перевод: Дублированный - Лицензия



Информация о файле:
Кодек: AVC
Формат: MKV
Качество: WEB-DLRip-AVC
Видео: MPEG-4 AVC, 1024x576 (16:9), 2358 kbps, 23.976 fps, 0.167
Аудио RU: AC3, 6 ch, 48 kHz, 448 kbps
Субтитры: Русские, английские



General
Unique ID : 180336236450260113253512878883373032926 (0x87AB7EEBAF51CC2E2980953E8EB3A5DE)
Complete name : D:uTorrentРипы_от_wolf1245_MediaBitДиджей Золушка - Cinderela Pop (2019)_wolf1245 & MediaBit.mkv
Format : Matroska
Format version : Version 4
File size : 1.89 GiB
Duration : 1 h 36 min
Overall bit rate : 2 801 kb/s
Movie name : Диджей Золушка / Cinderela Pop (2019)_wolf1245 & MediaBit
Encoded date : UTC 2020-09-03 18:20:56
Writing application : mkvmerge v49.0.0 ('Sick Of Losing Soulmates') 64-bit
Writing library : libebml v1.4.0 + libmatroska v1.6.1
Video
ID : 1
Format : AVC
Format/Info : Advanced Video Codec
Format profile : High@L4.1
Format settings : CABAC / 11 Ref Frames
Format settings, CABAC : Yes
Format settings, Reference frames : 11 frames
Codec ID : V_MPEG4/ISO/AVC
Duration : 1 h 36 min
Bit rate : 2 358 kb/s
Width : 1 024 pixels
Height : 576 pixels
Display aspect ratio : 16:9
Frame rate mode : Constant
Frame rate : 23.976 (24000/1001) FPS
Color space : YUV
Chroma subsampling : 4:2:0
Bit depth : 8 bits
Scan type : Progressive
Bits/(Pixel*Frame) : 0.167
Stream size : 1.59 GiB (84%)
Title : wolf1245 & MediaBit
Writing library : x264 core 157 r2958 57baac4
Encoding settings : cabac=1 / ref=11 / deblock=1:-3:-3 / analyse=0x3:0x133 / me=umh / subme=11 / psy=1 / psy_rd=1.00:0.15 / mixed_ref=1 / me_range=48 / chroma_me=1 / trellis=2 / 8x8dct=1 / cqm=0 / deadzone=21,11 / fast_pskip=0 / chroma_qp_offset=-3 / threads=10 / lookahead_threads=2 / sliced_threads=0 / nr=0 / decimate=0 / interlaced=0 / bluray_compat=0 / constrained_intra=0 / bframes=11 / b_pyramid=2 / b_adapt=2 / b_bias=4 / direct=3 / weightb=1 / open_gop=0 / weightp=2 / keyint=240 / keyint_min=24 / scenecut=40 / intra_refresh=0 / rc_lookahead=60 / rc=2pass / mbtree=0 / bitrate=2358 / ratetol=1.0 / qcomp=0.60 / qpmin=0 / qpmax=69 / qpstep=4 / cplxblur=20.0 / qblur=0.5 / vbv_maxrate=50000 / vbv_bufsize=62500 / nal_hrd=none / filler=0 / ip_ratio=1.40 / pb_ratio=1.30 / aq=1:1.00
Language : English
Default : Yes
Forced : No

Audio
ID : 2
Format : AC-3
Format/Info : Audio Coding 3
Commercial name : Dolby Digital
Codec ID : A_AC3
Duration : 1 h 36 min
Bit rate mode : Constant
Bit rate : 448 kb/s
Channel(s) : 6 channels
Channel layout : L R C LFE Ls Rs
Sampling rate : 48.0 kHz
Frame rate : 31.250 FPS (1536 SPF)
Compression mode : Lossy
Stream size : 310 MiB (16%)
Title : DUB | Лицензия
Language : Russian
Service kind : Complete Main
Default : Yes
Forced : No

Text #1
ID : 3
Format : UTF-8
Codec ID : S_TEXT/UTF8
Codec ID/Info : UTF-8 Plain Text
Duration : 1 h 30 min
Bit rate : 138 b/s
Count of elements : 1439
Stream size : 91.8 KiB (0%)
Language : Russian
Default : No
Forced : No

Text #2
ID : 4
Format : UTF-8
Codec ID : S_TEXT/UTF8
Codec ID/Info : UTF-8 Plain Text
Duration : 1 h 33 min
Bit rate : 84 b/s
Count of elements : 1654
Stream size : 57.8 KiB (0%)
Language : English
Default : No
Forced : No

Text #3
ID : 5
Format : UTF-8
Codec ID : S_TEXT/UTF8
Codec ID/Info : UTF-8 Plain Text
Duration : 1 h 33 min
Bit rate : 89 b/s
Count of elements : 1733
Stream size : 61.0 KiB (0%)
Language : English
Default : No
Forced : No
Релиз от: &
pb.wtf



Скачать Диджей Золушка через торрент https://d.radikal.ru/d32/2009/7a/1631841f232c.jpg Скачать фильм Диджей Золушка через торрент бесплантно в хорошем качестве Описание: Синтия Тирелла — обычная девочка, которая жила в мире грез и сказок. В ее мирке не было места злу, но все изменилось, после ... 10 10 2
Торрент: Зарегистрирован [2020-09-03 18:42] · скачан: 37 раз
Статус: √ проверено
Размер: 1.89 GB
Как cкачать? Как скачать Диджей Золушка через торрент | qTorrent

28-11-2019 20:33  

Отключить всю рекламу на сайте

04-09-2020 13:58 Диджей Золушка Скачать торрент  

Заметил ошибку в описании. В первом предложении слово "развесить" прошу заменить на "развестись".pb.wtf



    Дорогой пользователь! Огромная просьба, поблагодарите релизера, оцените раздачу и оставьте свои комментарий, если Вы скачали Диджей Золушка через торрент бесплатно! Внесите свою лепту в развитие PiratBit!
    Комментировать посты могут только пользователи прошедшие не сложную регистрацию
    Показать сообщения:    

    Диджей Золушка через торрент
    Скачать бесплатно Диджей Золушка
    Диджей Золушка скачать торрент
    Диджей Золушка смотреть онлайн
    Cкачать фильм Диджей Золушка бесплатно
    Диджей Золушка скачать торрент в хорошем качестве
    Диджей Золушка смотреть онлайн бесплатно в хорошем качестве


    Вы не можете начинать темы
    Вы не можете отвечать на сообщения
    Вы не можете редактировать свои сообщения
    Вы не можете удалять свои сообщения
    Вы не можете голосовать в опросах
    Вы не можете прикреплять файлы к сообщениям
    Вы можете скачивать файлы