Всегда рабочее зеркало без VPN и Proxy просто перед .vidak.icu напиши любое слово или цифру, Пример http://es1g.vidak.icu

MVO

Лицензия

1 сезон

1

1 сезон

iTunes

1 сезон

13

1 сезон

Deluxe

pack

Рекомендуем

Пиратка

30

ВАЖНО

RePack

MK11

RePack

jed

RePack

fifa19

RePack

RDR2

RePack

NEED FOR SPEED™ PAYBACK

Кинопоиск HD

6 сезон

 Острые козырьки 6 сезон

Все сериалы

все сериалы на PB.wtf

RePack

FAR CRY 5
  
Magnet ссылка

Номер один (Михаил Расходников) [2020, комедия, WEBRip 720p] pb.wtf

Номер один через торрент pb.wtf

Размер: 2.72 GB | Добавлен: 1 год 9 мес. назад | Торрент скачан:310 раз
Смотреть онлайн Номер один | Скачать    Ребята, помогите собрать деньги на оплату серверов!!!

04-09-2020 15:20 Номер один Скачать торрент  


Номер один


Год выхода: 2020
Жанр: Комедия
Страна: Россия
Продолжительность: 01:32:22
Перевод: Не требуется

Режиссер: Михаил Расходников

В ролях: Филипп Янковский, Дмитрий Власкин, Ксения Собчак, Рина Гришина, Николай Шрайбер, Мария Лобанова, Андрей Федорцов, Игорь Миркурбанов, Марина Ермошкина и др.

О фильме: Артем, молодой авантюрист, встречает Феликса — некогда легендарного похитителя предметов искусства, которого называли «Номер один». «Старая школа» и новичок решают провернуть аферу века – украсть одну из самых дорогих картин современности – «№ 1» Марка Ротко из галереи, принадлежащей бывшей жене Феликса и ее нового мужа. Волей случая Артем знакомится с Мариной и влюбляется в нее. А она оказывается следователем и очень хочет поймать Феликса с поличным.



Качество: WEBRip 720p
Формат: MKV
Видео: MPEG-4 AVC, 1280x534, 4023 kbps, 23,976 fps
Аудио: AC3, 2.0 ch, 48 kHz, 192 kbps
Общее

Уникальный идентификатор : 247796400420060087815032083967290787000 (0xBA6BD9CBEF1CA0AFBACD658DAD1644B8)

Полное имя : E:Torrent4NomerOdinWebRip720p.mkv

Формат : Matroska

Версия формата : Version 4 / Version 2

Размер файла : 2,72 Гбайт

Продолжительность : 1 ч. 32 м.

Общий поток : 4217 Кбит/сек

Дата кодирования : UTC 2020-09-02 14:59:19

Программа кодирования : mkvmerge v9.5.0 ('Quiet Fire') 64bit

Библиотека кодирования : libebml v1.3.4 + libmatroska v1.4.5

Видео

Идентификатор : 1

Формат : AVC

Формат/Информация : Advanced Video Codec

Профиль формата : High@L4.1

Настройки формата : CABAC / 12 Ref Frames

Параметр CABAC формата : Да

Параметр RefFrames формата : 12 кадров

Идентификатор кодека : V_MPEG4/ISO/AVC

Продолжительность : 1 ч. 32 м.

Битрейт : 4023 Кбит/сек

Ширина : 1280 пикселей

Высота : 534 пикселя

Соотношение сторон : 2,40:1

Режим частоты кадров : Постоянный

Частота кадров : 23,976 (23976/1000) кадра/сек

Цветовое пространство : YUV

Субдискретизация насыщенности : 4:2:0

Битовая глубина : 8 бит

Тип развёртки : Прогрессивная

Бит/(Пиксели*Кадры) : 0.245

Размер потока : 2,60 Гбайт (95%)

Язык : Russian

Default : Да

Forced : Нет

Аудио

Идентификатор : 2

Формат : AC-3

Формат/Информация : Audio Coding 3

Параметр Endianness формата : Big

Идентификатор кодека : A_AC3

Продолжительность : 1 ч. 32 м.

Вид битрейта : Постоянный

Битрейт : 192 Кбит/сек

Каналы : 2 канала

Расположение каналов : Front: L R

Частота : 48,0 КГц

Частота кадров : 31,250 кадров/сек (1536 SPF)

Битовая глубина : 16 бит

Метод сжатия : С потерями

Размер потока : 127 Мбайт (5%)

Заголовок : rus

Язык : Russian

Default : Да

Forced : Нет
скриншот  скриншот  скриншот  скриншот  
pb.wtf



Скачать Номер один через торрент http://lostpix.com/thumbs/2020-09/02/kmfxojxb7zce05oi86bxfz1yj.png Скачать, смотреть онлайн Номер один бесплантно в хорошем качестве О фильме: Артем, молодой авантюрист, встречает Феликса — некогда легендарного похитителя предметов искусства, которого называли «Номер ... 10 10 6
Торрент: Зарегистрирован [2020-09-04 15:20] · скачан: 310 раз
Статус: T временная
Размер: 2.72 GB
Как cкачать? Как скачать Номер один через торрент | UTorrent

% Раздел Тема Автор DL S | L
Наши новые фильмы 2020 - 2022 [ 745 MB ] Номер один [2020 WEB-DLRip] bober100 Скачать
1 | 0
Наши новые фильмы 2020 - 2022 [ 1.46 GB ] Номер один [2020 WEB-DLRip-AVC] bober100 Скачать
1 | 0
Наши новые фильмы 2020 - 2022 [ 1.46 GB ] Номер один [2020 WEB-DLRip] bober100 Скачать
1 | 0
Наши фильмы (HD, WEB-DL 720p, 1080p) [ 3.2 GB ] Номер один [2020 WEB-DL 1080p] bober100 Скачать
1 | 0
T Наши новые фильмы 2020 - 2022 [ 752 MB ] Номер один [2020 WEBRip-AVC] [RUS] от MediaBit Lithuania Скачать
1 | 0
T Фильмы 2019-2020 [DVDrip, WEB-DLRip, HDrip] (DUB, MVO) [ 1.2 GB ] Допросная номер один / 1 Interrogation [2020 WEB-DLRip-AVC] [MVO] [MUZOBOZ@] от MediaBit Lithuania Скачать
1 | 0
T Фильмы (мультфильмы) cо спонсором показа (Новинки AVI/MKV) [ 4.52 GB ] Правило номер один / Rule number one [2018 Мело WEB-DL 720p] MVO ["Синема УС"] bober100 Скачать
1 | 0

28-11-2019 20:33  

Отключить всю рекламу на сайте

26-09-2020 18:26 Номер один Скачать торрент  

Зачётный фильм, я бы даже оценил выше, на "6+". С юмором, и смотрится очень динамично и увлекательно))pb.wtf



    Дорогой пользователь! Огромная просьба, поблагодарите релизера, оцените раздачу и оставьте свои комментарий, если Вы скачали Номер один через торрент бесплатно!
    Комментировать посты могут только пользователи прошедшие не сложную регистрацию
    Показать сообщения:    

    Номер один через торрент
    Скачать бесплатно Номер один
    Номер один скачать торрент
    Номер один смотреть онлайн
    Cкачать фильм Номер один бесплатно
    Номер один скачать торрент в хорошем качестве
    Номер один смотреть онлайн бесплатно в хорошем качестве


    Вы не можете начинать темы
    Вы не можете отвечать на сообщения
    Вы не можете редактировать свои сообщения
    Вы не можете удалять свои сообщения
    Вы не можете голосовать в опросах
    Вы не можете прикреплять файлы к сообщениям
    Вы можете скачивать файлы