Ссылка на приватное зеркало нашего сайта всего за 1$. Внимание количество ограничено!!!

2 сезон

iTunes

1 сезон

1

iTunes

iTunes

iTunes

1 сезон

RePack

30

ИГРА 18+

pack

ВАЖНО

!!Акция!!

Alien_RageХит недели

RePack

MK11
pack

Забери бонус

RePack

jed

!!Акция!!

Alien_Rage

RePack

fifa19

RePack

Assassins Creed: Odyssey

RePack

NEED FOR SPEED™ PAYBACK

4 сезон

9 сезон

Бесстыжие 9 сезон

Все сериалы

все сериалы на PB.wtf

RePack

FAR CRY 5
  

Окончательный приговор / Ultimate Justice (Мартин Кристофер Боде) [2017, Tриллер, WEB-DL 1080p] MVO [Creative Arts Media] - ExKinoRay pb.wtf

Окончательный приговор через торрент pb.wtf

Раздают: 25 [ 0 KB/s ]
Размер: 4.65 GB | Добавлен: 1 мес. 20 д. назад | Торрент скачан:85 раз
Скачать  

04-09-2020 23:23 Окончательный приговор Скачать торрент  

Название: Окончательный приговор
Оригинальное название: Ultimate Justice
Год выпуска: 2017
Жанр: Боевик, триллер
Режиссер: Мартин Кристофер Боде
В ролях: Марк Дакаскос, Брэндон Ри, Маттиас Хьюз, Мике Мёллер, Майк Лидер, Вольфганг Рим, Мартин Баден

Описание: После распада группы крутых ребят, проходит 8 лет и одному из них нужна помощь: неизвестные нападают на семью одного из своих, тогда команда бывших элитных бойцов возвращается к работе и ввязывается в жестокую игру «убей или будь убитым», где на кону стоит жизнь и смерть.

rating

Страна: Германия
Студия: International Film Partners, Silent Partners
Продолжительность: 01:33:15
Перевод: Профессиональный многоголосый (по заказу Creative Arts Media)

Формат: MKV
Качество: WEB-DL 1080p
Видео: MPEG-4 AVC, 1920x816 (2.35:1), 23.976 fps, 6582 Kbps, 0.175 bit/pixel
Аудио #01: 48 kHz, AC3, 2.0, 192 Kbps | MVO | RUS |
Аудио #02: 48 kHz, Е-AC3, 2.0, 224 Kbps | Оригинал | ENG |
Субтитры: Aнглийские
General
Unique ID : 246005746162234057763002618068562927104 (0xB912FBB9B6B967AD9AD8EC91895CDE00)
Complete name : F:\Ultimate.Justice.2017.1080p.AMZN.WEB-DL.ExKinoRay.mkv
Format : Matroska
Format version : Version 2
File size : 4.65 GiB
Duration : 1 h 33 min
Overall bit rate : 7 140 kb/s
Movie name : Ultimate Justice 2017 from ExKinoRay
Encoded date : UTC 2020-09-04 21:50:43
Writing application : mkvmerge v5.6.0 ('Kenya Kane') built on May 27 2012 16:44:04
Writing library : libebml v1.2.3 + libmatroska v1.3.0

Video
ID : 1
Format : AVC
Format/Info : Advanced Video Codec
Format profile : High@L4
Format settings, CABAC : Yes
Format settings, ReFrames : 4 frames
Codec ID : V_MPEG4/ISO/AVC
Duration : 1 h 33 min
Bit rate mode : Constant
Bit rate : 6 582 kb/s
Nominal bit rate : 10 000 kb/s
Width : 1 920 pixels
Height : 816 pixels
Display aspect ratio : 2.35:1
Frame rate mode : Constant
Frame rate : 23.976 (24000/1001) FPS
Color space : YUV
Chroma subsampling : 4:2:0
Bit depth : 8 bits
Scan type : Progressive
Bits/(Pixel*Frame) : 0.175
Stream size : 4.29 GiB (92%)
Default : Yes
Forced : No
Color range : Limited
Color primaries : BT.709
Transfer characteristics : BT.709
Matrix coefficients : BT.709

Audio #1
ID : 2
Format : AC-3
Format/Info : Audio Coding 3
Mode extension : CM (complete main)
Format settings, Endianness : Big
Codec ID : A_AC3
Duration : 1 h 33 min
Bit rate mode : Constant
Bit rate : 192 kb/s
Channel(s) : 2 channels
Channel positions : Front: L R
Sampling rate : 48.0 kHz
Frame rate : 31.250 FPS (1536 spf)
Compression mode : Lossy
Stream size : 128 MiB (3%)
Title : MVO
Language : Russian
Default : Yes
Forced : No

Audio #2
ID : 3
Format : E-AC-3
Format/Info : Audio Coding 3
Format settings, Endianness : Big
Codec ID : A_EAC3
Duration : 1 h 33 min
Bit rate mode : Constant
Bit rate : 224 kb/s
Channel(s) : 2 channels
Channel positions : Front: L R
Sampling rate : 48.0 kHz
Frame rate : 187.500 FPS (256 spf)
Compression mode : Lossy
Stream size : 149 MiB (3%)
Language : English
Default : No
Forced : No

Text
ID : 4
Format : UTF-8
Codec ID : S_TEXT/UTF8
Codec ID/Info : UTF-8 Plain Text
Language : English
Default : No
Forced : No


Релиз от:

Автор релиза: pb.wtf



Скачать Окончательный приговор через торрент https://d.radikal.ru/d39/2009/1a/4094aa87d40c.jpg Скачать фильм Окончательный приговор через торрент бесплантно в хорошем качестве Описание: После распада группы крутых ребят, проходит 8 лет и одному из них нужна помощь: неизвестные нападают на семью одного из своих, ... 10 10 2
Info! Золотая раздача, скачанное не засчитывается.
Торрент: Зарегистрирован [2020-09-04 23:23] · скачан: 85 раз
Статус: T временная
Размер: 4.65 GB
Как cкачать? Как скачать Окончательный приговор через торрент | qTorrent

28-11-2019 20:33  

Отключить всю рекламу на сайте

05-09-2020 07:18 Окончательный приговор Скачать торрент  

как Фильм?pb.wtf



05-09-2020 18:54 Окончательный приговор Скачать торрент  

warlook писал(а):

как Фильм?

4.4 на IMDb как бы намекаютpb.wtf



    Дорогой пользователь! Огромная просьба, поблагодарите релизера, оцените раздачу и оставьте свои комментарий, если Вы скачали Окончательный приговор через торрент бесплатно! Внесите свою лепту в развитие PiratBit!
    Комментировать посты могут только пользователи прошедшие не сложную регистрацию
    Показать сообщения:    

    Окончательный приговор через торрент
    Скачать бесплатно Окончательный приговор
    Окончательный приговор скачать торрент
    Окончательный приговор смотреть онлайн
    Cкачать фильм Окончательный приговор бесплатно
    Окончательный приговор скачать торрент в хорошем качестве
    Окончательный приговор смотреть онлайн бесплатно в хорошем качестве


    Вы не можете начинать темы
    Вы не можете отвечать на сообщения
    Вы не можете редактировать свои сообщения
    Вы не можете удалять свои сообщения
    Вы не можете голосовать в опросах
    Вы не можете прикреплять файлы к сообщениям
    Вы можете скачивать файлы