Ссылка на приватное зеркало нашего сайта всего за 1$. Внимание количество ограничено!!!

2 сезон

iTunes

1 сезон

1

iTunes

iTunes

iTunes

1 сезон

RePack

30

ИГРА 18+

pack

ВАЖНО

!!Акция!!

Alien_RageХит недели

RePack

MK11
pack

Забери бонус

RePack

jed

!!Акция!!

Alien_Rage

RePack

fifa19

RePack

Assassins Creed: Odyssey

RePack

NEED FOR SPEED™ PAYBACK

4 сезон

9 сезон

Бесстыжие 9 сезон

Все сериалы

все сериалы на PB.wtf

RePack

FAR CRY 5
  

Гранд / Сезон: 4 / Серии: 1-7 из 21 (Дмитрий Грибанов) [2020, Комедия, WEBRip] pb.wtf

Гранд через торрент pb.wtf

Раздают: 2 [ 13 KB/s ] Качают: 1 [ 0 KB/s ]
Размер: 2.05 GB | Добавлен: 4 д. назад | Торрент скачан:8 раз
Скачать  

05-09-2020 02:59 Гранд Скачать торрент  

Гранд
Год выпуска: 2020
Страна: Россия
Выпущено: СУПЕР продакшн, Киностудия "Yellow, Black and White"
Жанр: Комедия
Продолжительность: ~ 00:28:00
Субтитры: отсутствуют

Режиссер: Дмитрий Грибанов

rating

В ролях: Мила Сивацкая, Александр Лыков, Александра Кузенкина, Владислав Ветров, Наталья Щукина, Константин Белошапка, Александра Урсуляк, Елизавета Кононова, Александр Соколовский, Игорь Хрипунов, Николай Шрайбер, Марина Кондратьева (II), Дмитрий Фрид, Валерия Шкирандо, Алёна Коломина

Описание: Ксения Завгородняя стремительно поднимается по карьерной лестнице. Перед арестом Игорь Зуев переписывает на неё свою долю в «Гранде». Но хозяин отеля Лев Глебович не намерен сдавать позиции. Федотов уверен, что своенравная провинциалка здесь временно и ей не по зубам управлять отелем. А Ксению ждут всё новые проблемы: бастующие жители, капризные блогеры, несговорчивые поставщики и даже матёрые бандиты. Сотрудникам «Гранда» тоже нелегко даются перемены. Директор ресторана Григорий точно знает, какое вино посоветовать гостю, но в делах любовных он беспомощен. С кем ему быть — с Юлей или бывшей женой, которой он теперь так нужен? Борис Леонидович тоже в замешательстве: он не решается признаться коллегам и особенно Стелле, что помирился с Валентиной. А в плотном графике Ксении времени на личную жизнь всё меньше. Простит ли она Юру или впустит в свою жизнь кого-то ещё, например, эксцентричного фермера из деревни?

Качество: WEBRip
Формат: AVI

Видео: 720x400 (1.80:1), 25 fps, XviD ~1500 kbps avg, 0.205 bit/pixel
Аудио: 48.0 kHz, AC3 Dolby Digital, 2/0 (L,R) ch, ~ 192 kbps
скриншот  скриншот  скриншот  скриншот  скриншот  

General
Complete name : D:\Grand.S04.WEB-DLRip.25Kuzmich\Grand.s04e01.WEB-DLRip.25Kuzmich.avi
Format : AVI
Format/Info : Audio Video Interleave
File size : 301 MiB
Duration : 25 min 3 s
Overall bit rate : 1 678 kb/s
Writing application : VirtualDubMod 1.5.10.3 | www.virtualdub-fr.org || (build 2550/release)
Writing library : VirtualDubMod build 2550/release

Video
ID : 0
Format : MPEG-4 Visual
Format profile : Advanced Simple@L5
Format settings : BVOP1
Format settings, BVOP : 1
Format settings, QPel : No
Format settings, GMC : No warppoints
Format settings, Matrix : Default (MPEG)
Codec ID : XVID
Codec ID/Hint : XviD
Duration : 25 min 3 s
Bit rate : 1 476 kb/s
Width : 720 pixels
Height : 400 pixels
Display aspect ratio : 16:9
Frame rate : 25.000 FPS
Color space : YUV
Chroma subsampling : 4:2:0
Bit depth : 8 bits
Scan type : Progressive
Compression mode : Lossy
Bits/(Pixel*Frame) : 0.205
Stream size : 264 MiB (88%)
Writing library : XviD 73

Audio
ID : 1
Format : AC-3
Format/Info : Audio Coding 3
Codec ID : 2000
Duration : 25 min 3 s
Bit rate mode : Constant
Bit rate : 192 kb/s
Channel(s) : 2 channels
Channel positions : Front: L R
Sampling rate : 48.0 kHz
Frame rate : 31.250 FPS (1536 SPF)
Bit depth : 16 bits
Compression mode : Lossy
Stream size : 34.4 MiB (11%)
Alignment : Split accross interleaves
Interleave, duration : 40 ms (1.00 video frame)
Interleave, preload duratio : 500 ms
Service kind : Complete Main

Когда раздача ведётся путём добавления новых серий, при каждом добавлении создётся новый торрент. Чтобы начать докачку новой серии, пользователям необходимо сделать следующее:
(1) остановить скачивание,
(2) удалить старый торрент у себя из клиента (старые серии удалять не надо),
(3) скачать новый торрент и запустить его у себя в клиенте вместо старого, при этом указать клиенту путь в старую папку, куда и должно происходить скачивание новых серий.
Ваш клиент при этом должен произвести хеширование (проверку) старой папки (если не производит сам - помогите ему сделать это), и будет докачивать только те серии, которых у вас ещё нет. Старые серии при этом не удаляются, а продолжают раздаваться!
Eсли вы уже удалили старые серии, то предотвратить повторную закачку старых серий можно, отжав галочку в соответсвующих местах при запуске нового торрента. По возможности, желательно не удалять старые серии как можно дольше, чтобы релизёр не столько продолжал раздавать старые серии, а смог сконцентрироваться на новых.
pb.wtf



Скачать Гранд через торрент https://i112.fastpic.ru/big/2020/0904/eb/17d68739442e3a1d3eadab89b95693eb.jpeg?r=1 Скачать фильм Гранд через торрент бесплантно в хорошем качестве Описание: Ксения Завгородняя стремительно поднимается по карьерной лестнице. Перед арестом Игорь Зуев переписывает на неё свою долю в ... 9.9 10 8
Торрент: Зарегистрирован [2020-10-16 02:19] · скачан: 8 раз
Статус: √ проверено
Размер: 2.05 GB
Как cкачать? Как скачать Гранд через торрент | qTorrent

% Раздел Тема Автор DL S | L
Наши сериалы [ 7.83 GB ] Гранд / Сезон: 4 / Серии: 1-7 из 21 [2020 WEBRip 1080p] bober100 Скачать
6 | 3


Последний раз редактировалось: bober100 (2020-09-05 19:13), всего редактировалось 1 раз

28-11-2019 20:33  

Отключить всю рекламу на сайте

    Дорогой пользователь! Огромная просьба, поблагодарите релизера, оцените раздачу и оставьте свои комментарий, если Вы скачали Гранд через торрент бесплатно! Внесите свою лепту в развитие PiratBit!
    Комментировать посты могут только пользователи прошедшие не сложную регистрацию
    Показать сообщения:    

    Гранд через торрент
    Скачать бесплатно Гранд
    Гранд скачать торрент
    Гранд смотреть онлайн
    Cкачать фильм Гранд бесплатно
    Гранд скачать торрент в хорошем качестве
    Гранд смотреть онлайн бесплатно в хорошем качестве


    Вы не можете начинать темы
    Вы не можете отвечать на сообщения
    Вы не можете редактировать свои сообщения
    Вы не можете удалять свои сообщения
    Вы не можете голосовать в опросах
    Вы не можете прикреплять файлы к сообщениям
    Вы можете скачивать файлы