Ссылка на приватное зеркало нашего сайта всего за 1$. Внимание количество ограничено!!!

2 сезон

iTunes

1 сезон

1

iTunes

iTunes

iTunes

1 сезон

RePack

30

ИГРА 18+

pack

ВАЖНО

!!Акция!!

Alien_RageХит недели

RePack

MK11
pack

Забери бонус

RePack

jed

!!Акция!!

Alien_Rage

RePack

fifa19

RePack

Assassins Creed: Odyssey

RePack

NEED FOR SPEED™ PAYBACK

4 сезон

9 сезон

Бесстыжие 9 сезон

Все сериалы

все сериалы на PB.wtf

RePack

FAR CRY 5
  

Яркие краски осени / Серии: 1-2 из 2 (Сергей Артимович) [2020, Мелодрама, SATRip] pb.wtf

Яркие краски осени через торрент pb.wtf

Раздают: 1 [ 0 KB/s ]
Размер: 2.39 GB | Добавлен: 1 мес. 21 д. назад | Торрент скачан:37 раз
Скачать  

05-09-2020 18:34 Яркие краски осени Скачать торрент  

Яркие краски осени
Год выпуска: 2020
Страна: Россия
Производство: Производство ООО «Кинокомпания Русское», ООО «Студия Весна»
Жанр: Мелодрама
Продолжительность: ~ 00:45:00 серия
Субтитры: отсутствуют

Режиссер: Сергей Артимович



В ролях: Пелагея Невзорова, Иван Колесников, Наталья Чернявская, Сергей Юшкевич, Яна Чечулина, Илья Ильиных, Евгения Шевченко, Максим Иванов (II), Евгения Каверау, Егор Губарев, Аиша Мещерякова

Описание: Жизнь студентки меда Риты складывалась как в доброй сказке, пока в тихую гавань не ворвалась первая любовь. Бросив институт и родителей, девушка сбегает в другой город с музыкантом Аликом. Как это часто бывает, любовь быстро остыла, но не забылась: Рита беременна. Со временем жизнь Риты налаживается - сын подрастает, отношения с родителями потеплели, и ей, наконец, удаётся устроиться медсестрой в больницу. Но неожиданно на ее семью сваливается новое испытание. Отца Риты Федора Николаевича увольняет с работы новый начальник Борис. Отец начинает выпивать, и мир в семье рушится. Вскоре Борис попадает в аварию и оказывается в больнице, где работает Рита. Между ними возникает симпатия, обещающая нечто большее, но Рита и не подозревает, что перед ней виновник всех бед ее семьи…

Качество: SATRip
Формат: AVI

Видео: XviD, 720x400, ~ 1700 Кбит/с, 0.236 bit/pixel, 25 кадр/с
Аудио: МР3, 48,0 КГц, 2 ch, 192 Кбит/с
скриншот  скриншот  скриншот  скриншот  

Общее
Полное имя : D:\Яркие.Краски.Осени.XviD.2019.SATRip.7turza™\01.Яркие.Краски.Осени.7turza™.avi
Формат : AVI
Формат/Информация : Audio Video Interleave
Профиль формата : OpenDML
Размер файла : 1,19 Гбайт
Продолжительность : 1 ч. 29 м.
Общий поток : 1905 Кбит/сек
Название фильма : S01 E01 # from 7turza #
Программа кодирования : Lavf58.45.100

Видео
Идентификатор : 0
Формат : MPEG-4 Visual
Профиль формата : Advanced Simple@L5
Настройки формата : BVOP1
Параметр BVOP формата : 1
Параметр QPel формата : Нет
Параметр GMC формата : Без точки перехода
Параметр матрицы формата : Default (H.263)
Идентификатор кодека : XVID
Идентификатор кодека/Подсказка : XviD
Продолжительность : 1 ч. 29 м.
Битрейт : 1697 Кбит/сек
Ширина : 720 пикселей
Высота : 400 пикселей
Соотношение сторон : 16:9
Частота кадров : 25,000 кадров/сек
Цветовое пространство : YUV
Субдискретизация насыщенности : 4:2:0
Битовая глубина : 8 бит
Тип развёртки : Прогрессивная
Метод сжатия : С потерями
Бит/(Пиксели*Кадры) : 0.236
Размер потока : 1,06 Гбайт (89%)
Библиотека кодирования : XviD 69

Аудио
Идентификатор : 1
Формат : MPEG Audio
Версия формата : Version 1
Профиль формата : Layer 3
Настройки формата : Joint stereo / MS Stereo
Идентификатор кодека : 55
Идентификатор кодека/Подсказка : MP3
Продолжительность : 1 ч. 29 м.
Вид битрейта : Постоянный
Битрейт : 192 Кбит/сек
Каналы : 2 канала
Частота : 48,0 КГц
Метод сжатия : С потерями
Размер потока : 123 Мбайт (10%)
Выравнивание : Соединение по промежуткам
Продолжительность промежутка : 24 мс. (0,60 видеокадр)
Библиотека кодирования : LAME3.100

pb.wtf



Скачать Яркие краски осени через торрент https://d.radikal.ru/d04/2009/19/0b4ea990b625.jpg Скачать фильм Яркие краски осени через торрент бесплантно в хорошем качестве Описание: Жизнь студентки меда Риты складывалась как в доброй сказке, пока в тихую гавань не ворвалась первая любовь. Бросив институт и ... 7.8 10 4
Торрент: Зарегистрирован [2020-09-05 18:34] · скачан: 37 раз
Статус: √ проверено
Размер: 2.39 GB
Как cкачать? Как скачать Яркие краски осени через торрент | qTorrent

% Раздел Тема Автор DL S | L
Наши сериалы [ 4.64 GB ] Яркие краски осени / Серии: 1-2 из 2 [2020 Мело HDTVRip 720p] bober100 Скачать
2 | 0
Наши сериалы [ 9.62 GB ] Яркие краски осени / Серии: 1-2 из 2 [2020 Мело HDTV 1080i] bober100 Скачать
1 | 0

28-11-2019 20:33  

Отключить всю рекламу на сайте

    Дорогой пользователь! Огромная просьба, поблагодарите релизера, оцените раздачу и оставьте свои комментарий, если Вы скачали Яркие краски осени через торрент бесплатно! Внесите свою лепту в развитие PiratBit!
    Комментировать посты могут только пользователи прошедшие не сложную регистрацию
    Показать сообщения:    

    Яркие краски осени через торрент
    Скачать бесплатно Яркие краски осени
    Яркие краски осени скачать торрент
    Яркие краски осени смотреть онлайн
    Cкачать фильм Яркие краски осени бесплатно
    Яркие краски осени скачать торрент в хорошем качестве
    Яркие краски осени смотреть онлайн бесплатно в хорошем качестве


    Вы не можете начинать темы
    Вы не можете отвечать на сообщения
    Вы не можете редактировать свои сообщения
    Вы не можете удалять свои сообщения
    Вы не можете голосовать в опросах
    Вы не можете прикреплять файлы к сообщениям
    Вы можете скачивать файлы