Ссылка на приватное зеркало нашего сайта всего за 1$. Внимание количество ограничено!!!

2 сезон

iTunes

iTunes

1

iTunes

iTunes

iTunes

WEBRip

iTunes

30
pack

Вам бонус

ВАЖНО

!!Акция!!

Alien_RageХит недели

RePack

Horizon Zero Dawn

ИГРА 18+

pack

RePack

jed

!!Акция!!

Alien_Rage

RePack

fifa19

RePack

Assassins Creed: Odyssey

RePack

NEED FOR SPEED™ PAYBACK

4 сезон

9 сезон

Бесстыжие 9 сезон

Все сериалы

все сериалы на PB.wtf

RePack

FAR CRY 5
  

Пацаны / The Boys / Сезон: 2 / Серии: 1-4 из 8 (Филип Сгриккиа, Дэниэл Эттиэс, Дженнифер Фанг) [2020, Фантастика, боевик, комедия, криминал, WEB-DL 1080p] 4xMVO+DVO [Кубик в Кубе] pb.wtf

Пацаны через торрент pb.wtf

Раздают: 6 [ 0 KB/s ]
Размер: 18.77 GB | Добавлен: 9 д. назад | Торрент скачан:89 раз
Скачать  

06-09-2020 02:39 Пацаны Скачать торрент  

Пацаны | The Boys
«Never Meet Your Heroes»
Год выпуска: 2020
Страна: США
Выпущено: Amazon Studios, Original Film, Point Grey Pictures, Sony Pictures Television
Жанр: Фантастика, боевик, комедия, криминал
Продолжительность: ~ 01:00:00
Перевод №1: Профессиональный (многоголосый) | AlexFilm
Перевод №2: Профессиональный (многоголосый) | Jaskier
Перевод №3: Профессиональный (многоголосый) | NewStudio |1-4 серии|
Перевод №4: Профессиональный (многоголосый) | LostFilm* |1-4 серии|
Перевод №5: Профессиональный (двухголосый) | Кубик в Кубе
Субтитры: Русские (Forced |«AlexFilm»|, |«Jaskier»|, |«NewStudio»|, |«LostFilm»|, |«Кубик в Кубе»|, Full |«Amazon»|, английские (Forced, SDH)
* отсутствует ненормативная лексика!

Режиссер: Филип Сгриккиа, Дэниэл Эттиэс, Дженнифер Фанг

rating

В ролях: Карл Урбан, Чейс Кроуфорд, Доминик МакЭллигот, Нэйтан Митчелл, Эрин Мориарти, Джек Куэйд, Элизабет Шу, Энтони Старр, Джесси Ашер, Лаз Алонсо и др.

Описание: Действие сериала разворачивается в мире, где существуют супергерои. Именно они являются настоящими звездами. Их все знают и обожают. Но за идеальным фасадом скрывается гораздо более мрачный мир наркотиков и секса, а большинство героев — в жизни не самые приятные люди. Для контроля за супергероями ЦРУ создает специальный отряд, неофициально известный как «Пацаны», суровые члены которого всегда готовы поставить зазнавшегося героя на место самым жестоким способом.

Качество: WEB-DL 1080p
Формат: MKV

Видео: 1920x800 (2.40:1), 23.976 fps, ~ 7900 Kbps
Аудио Rus: AC3, 48,0 kHz, 6 ch, 384 kbps | AlexFilm
Аудио Rus: AC3, 48,0 kHz, 6 ch, 384 kbps | Jaskier|
Аудио Rus: AC3, 48,0 kHz, 6 ch, 384 kbps | NewStudio |1-4 серии|
Аудио Rus: AC3, 48,0 kHz, 6 ch, 640 kbps | LostFilm* |1-4 серии|
Аудио Rus: AC3, 48,0 kHz, 6 ch, 448 kbps | Кубик в Кубе
Аудио Eng: AC3, 48,0 kHz, 6 ch, 640 kbps | Original

* отсутствует ненормативная лексика!
скриншот  скриншот  скриншот  скриншот  скриншот  

Complete name : D:The_Boys_(s02)_1080pThe.Boys.2020.S02E01.The.Big.Ride.1080p.AMZN.WEBRip.DD5.1.x264-NTb_EniaHD.mkv
Format : Matroska
Format version : Version 2
File size : 4.88 GiB
Duration : 1 h 2 min
Overall bit rate : 11.1 Mb/s
Encoded date : UTC 2020-09-13 22:48:24
Writing application : mkvmerge v4.9.1 ('Ich will') сборка от Jul 11 2011 23:53:15
Writing library : libebml v1.2.1 + libmatroska v1.1.1

Video
ID : 1
Format : AVC
Format/Info : Advanced Video Codec
Format profile : High@L4.1
Format settings : CABAC / 5 Ref Frames
Format settings, CABAC : Yes
Format settings, Reference : 5 frames
Codec ID : V_MPEG4/ISO/AVC
Duration : 1 h 2 min
Bit rate : 7 987 kb/s
Width : 1 920 pixels
Height : 800 pixels
Display aspect ratio : 2.40:1
Frame rate mode : Constant
Frame rate : 23.976 (24000/1001) FPS
Color space : YUV
Chroma subsampling : 4:2:0
Bit depth : 8 bits
Scan type : Progressive
Bits/(Pixel*Frame) : 0.217
Stream size : 3.51 GiB (72%)
Title : Release by EniaHD
Writing library : x264 core 157 r2969 d4099dd
Encoding settings : cabac=1 / ref=5 / deblock=1:-3:-3 / analyse=0x3:0x133 / me=umh / subme=10 / psy=1 / psy_rd=1.00:0.00 / mixed_ref=1 / me_range=48 / chroma_me=1 / trellis=2 / 8x8dct=1 / cqm=0 / deadzone=21,11 / fast_pskip=0 / chroma_qp_offset=-2 / threads=20 / lookahead_threads=4 / sliced_threads=0 / nr=0 / decimate=0 / interlaced=0 / bluray_compat=0 / constrained_intra=0 / bframes=9 / b_pyramid=0 / b_adapt=2 / b_bias=0 / direct=3 / weightb=1 / open_gop=0 / weightp=2 / keyint=250 / keyint_min=23 / scenecut=40 / intra_refresh=0 / rc_lookahead=60 / rc=crf / mbtree=0 / crf=17.5 / qcomp=0.60 / qpmin=0 / qpmax=69 / qpstep=4 / vbv_maxrate=62500 / vbv_bufsize=78125 / crf_max=0.0 / nal_hrd=none / filler=0 / ip_ratio=1.40 / pb_ratio=1.30 / aq=3:0.80
Default : Yes
Forced : No

Audio #1
ID : 2
Format : AC-3
Format/Info : Audio Coding 3
Commercial name : Dolby Digital
Codec ID : A_AC3
Duration : 1 h 2 min
Bit rate mode : Constant
Bit rate : 384 kb/s
Channel(s) : 6 channels
Channel layout : L R C LFE Ls Rs
Sampling rate : 48.0 kHz
Frame rate : 31.250 FPS (1536 SPF)
Compression mode : Lossy
Stream size : 173 MiB (3%)
Title : AlexFilm
Language : Russian
Service kind : Complete Main
Default : Yes
Forced : No

Audio #2
ID : 3
Format : AC-3
Format/Info : Audio Coding 3
Commercial name : Dolby Digital
Codec ID : A_AC3
Duration : 1 h 2 min
Bit rate mode : Constant
Bit rate : 384 kb/s
Channel(s) : 6 channels
Channel layout : L R C LFE Ls Rs
Sampling rate : 48.0 kHz
Frame rate : 31.250 FPS (1536 SPF)
Compression mode : Lossy
Stream size : 173 MiB (3%)
Title : Jaskier
Language : Russian
Service kind : Complete Main
Default : No
Forced : No

Audio #3
ID : 4
Format : AC-3
Format/Info : Audio Coding 3
Commercial name : Dolby Digital
Codec ID : A_AC3
Duration : 1 h 2 min
Bit rate mode : Constant
Bit rate : 384 kb/s
Channel(s) : 6 channels
Channel layout : L R C LFE Ls Rs
Sampling rate : 48.0 kHz
Frame rate : 31.250 FPS (1536 SPF)
Compression mode : Lossy
Stream size : 173 MiB (3%)
Title : NewStudio
Language : Russian
Service kind : Complete Main
Default : No
Forced : No

Audio #4
ID : 5
Format : AC-3
Format/Info : Audio Coding 3
Commercial name : Dolby Digital
Codec ID : A_AC3
Duration : 1 h 2 min
Bit rate mode : Constant
Bit rate : 640 kb/s
Channel(s) : 6 channels
Channel layout : L R C LFE Ls Rs
Sampling rate : 48.0 kHz
Frame rate : 31.250 FPS (1536 SPF)
Compression mode : Lossy
Stream size : 288 MiB (6%)
Title : LostFilm
Language : Russian
Service kind : Complete Main
Default : No
Forced : No

Audio #5
ID : 6
Format : AC-3
Format/Info : Audio Coding 3
Commercial name : Dolby Digital
Codec ID : A_AC3
Duration : 1 h 2 min
Bit rate mode : Constant
Bit rate : 448 kb/s
Channel(s) : 6 channels
Channel layout : L R C LFE Ls Rs
Sampling rate : 48.0 kHz
Frame rate : 31.250 FPS (1536 SPF)
Compression mode : Lossy
Stream size : 202 MiB (4%)
Title : KvK
Language : Russian
Service kind : Complete Main
Default : No
Forced : No

Audio #6
ID : 7
Format : AC-3
Format/Info : Audio Coding 3
Commercial name : Dolby Digital
Codec ID : A_AC3
Duration : 1 h 2 min
Bit rate mode : Constant
Bit rate : 640 kb/s
Channel(s) : 6 channels
Channel layout : L R C LFE Ls Rs
Sampling rate : 48.0 kHz
Frame rate : 31.250 FPS (1536 SPF)
Compression mode : Lossy
Stream size : 288 MiB (6%)
Language : English
Service kind : Complete Main
Default : No
Forced : No

Text #1
ID : 8
Format : UTF-8
Codec ID : S_TEXT/UTF8
Codec ID/Info : UTF-8 Plain Text
Title : Forced |AF|
Language : Russian
Default : Yes
Forced : No

Text #2
ID : 9
Format : UTF-8
Codec ID : S_TEXT/UTF8
Codec ID/Info : UTF-8 Plain Text
Title : Forced |JK|
Language : Russian
Default : No
Forced : No

Text #3
ID : 10
Format : UTF-8
Codec ID : S_TEXT/UTF8
Codec ID/Info : UTF-8 Plain Text
Title : Forced |NS|
Language : Russian
Default : No
Forced : No

Text #4
ID : 11
Format : UTF-8
Codec ID : S_TEXT/UTF8
Codec ID/Info : UTF-8 Plain Text
Title : Forced |LF|
Language : Russian
Default : No
Forced : No

Text #5
ID : 12
Format : UTF-8
Codec ID : S_TEXT/UTF8
Codec ID/Info : UTF-8 Plain Text
Title : Forced |KvK|
Language : Russian
Default : No
Forced : No

Text #6
ID : 13
Format : UTF-8
Codec ID : S_TEXT/UTF8
Codec ID/Info : UTF-8 Plain Text
Title : Full |Amazon|
Language : Russian
Default : No
Forced : No

Text #7
ID : 14
Format : UTF-8
Codec ID : S_TEXT/UTF8
Codec ID/Info : UTF-8 Plain Text
Title : UK Forced
Language : English
Default : No
Forced : No

Text #8
ID : 15
Format : UTF-8
Codec ID : S_TEXT/UTF8
Codec ID/Info : UTF-8 Plain Text
Title : US Forced
Language : English
Default : No
Forced : No

Text #9
ID : 16
Format : UTF-8
Codec ID : S_TEXT/UTF8
Codec ID/Info : UTF-8 Plain Text
Title : Full
Language : English
Default : No
Forced : No

Text #10
ID : 17
Format : UTF-8
Codec ID : S_TEXT/UTF8
Codec ID/Info : UTF-8 Plain Text
Title : SDH
Language : English
Default : No
Forced : No

Menu
00:00:00.000 : en:Amazon Original
00:00:05.000 : en:Ratings
00:00:15.000 : en:Previously On
00:02:58.000 : en:Collateral damage negotiations
00:06:11.000 : en:A memorial service
00:09:42.000 : en:Post-funeral interview
00:11:30.000 : en:Title Sequence | Hughie in bed
00:11:37.000 : en:Getting ready
00:14:30.000 : en:Secret meetings
00:17:17.000 : en:The Deep has a meltdown
00:18:42.000 : en:Watching TV
00:19:48.000 : en:Team arguments
00:21:20.000 : en:Homelander is in power
00:27:03.000 : en:Making money
00:30:02.000 : en:A new patient
00:31:37.000 : en:Watching the tapes
00:33:43.000 : en:Focus groups
00:35:08.000 : en:A safe space
00:38:19.000 : en:What to do next
00:43:05.000 : en:Black mail
00:46:40.000 : en:New kid on the block
00:48:50.000 : en:CIA meeting
00:51:23.000 : en:Homelander confronts Stan
00:56:07.000 : en:An unexpected visit
00:56:40.000 : en:Lies and deceit
01:00:56.000 : en:End Credits

Когда раздача ведётся путём добавления новых серий, при каждом добавлении создётся новый торрент. Чтобы начать докачку новой серии, пользователям необходимо сделать следующее:
(1) остановить скачивание,
(2) удалить старый торрент у себя из клиента (старые серии удалять не надо),
(3) скачать новый торрент и запустить его у себя в клиенте вместо старого, при этом указать клиенту путь в старую папку, куда и должно происходить скачивание новых серий.
Ваш клиент при этом должен произвести хеширование (проверку) старой папки (если не производит сам - помогите ему сделать это), и будет докачивать только те серии, которых у вас ещё нет. Старые серии при этом не удаляются, а продолжают раздаваться!
Eсли вы уже удалили старые серии, то предотвратить повторную закачку старых серий можно, отжав галочку в соответсвующих местах при запуске нового торрента. По возможности, желательно не удалять старые серии как можно дольше, чтобы релизёр не столько продолжал раздавать старые серии, а смог сконцентрироваться на новых.

pb.wtf



Скачать Пацаны через торрент https://i4.imageban.ru/out/2019/08/02/d2fd7622d1ed3de95e4bd9a03c8eeb95.png Скачать фильм Пацаны через торрент бесплантно в хорошем качестве Описание: Действие сериала разворачивается в мире, где существуют супергерои. Именно они являются настоящими звездами. Их все знают и ... 9.4 10 17
Info! Золотая раздача, скачанное не засчитывается.
Торрент: Зарегистрирован [2020-09-15 16:46] · скачан: 89 раз
Статус: √ проверено
Размер: 18.77 GB
Как cкачать? Как скачать Пацаны через торрент | qTorrent

% Раздел Тема Автор DL S | L
Зарубежные сериалы [ 6.78 GB ] Пацаны / The Boys / Сезон: 2 / Серии: 1-4 из 8 [2020 WEB-DLRip-AVC] [DVO] killermax2013 Скачать
7 | 3


Последний раз редактировалось: bober100 (2020-09-15 16:46), всего редактировалось 4 раз(а)

28-11-2019 20:33  

Отключить всю рекламу на сайте

13-09-2020 18:15 Пацаны Скачать торрент  

Когда уже 4 серия в кубике ?pb.wtf



16-09-2020 22:58 Пацаны Скачать торрент  

не знаю может у меня глюк, но до этого такого не было, тут одна звуковая дорожка АлексФильма,
вот субтитров полно, через обычный MPCpb.wtf



    Дорогой пользователь! Огромная просьба, поблагодарите релизера, оцените раздачу и оставьте свои комментарий, если Вы скачали Пацаны через торрент бесплатно! Внесите свою лепту в развитие PiratBit!
    Комментировать посты могут только пользователи прошедшие не сложную регистрацию
    Показать сообщения:    

    Пацаны через торрент
    Скачать бесплатно Пацаны
    Пацаны скачать торрент
    Пацаны смотреть онлайн
    Cкачать фильм Пацаны бесплатно
    Пацаны скачать торрент в хорошем качестве
    Пацаны смотреть онлайн бесплатно в хорошем качестве


    Вы не можете начинать темы
    Вы не можете отвечать на сообщения
    Вы не можете редактировать свои сообщения
    Вы не можете удалять свои сообщения
    Вы не можете голосовать в опросах
    Вы не можете прикреплять файлы к сообщениям
    Вы можете скачивать файлы