Ссылка на приватное зеркало нашего сайта всего за 1$. Внимание количество ограничено!!!

2 сезон

iTunes

1 сезон

1

iTunes

iTunes

iTunes

1 сезон

RePack

30

ИГРА 18+

pack

ВАЖНО

!!Акция!!

Alien_RageХит недели

RePack

MK11
pack

Забери бонус

RePack

jed

!!Акция!!

Alien_Rage

RePack

fifa19

RePack

Assassins Creed: Odyssey

RePack

NEED FOR SPEED™ PAYBACK

4 сезон

9 сезон

Бесстыжие 9 сезон

Все сериалы

все сериалы на PB.wtf

RePack

FAR CRY 5
  

4.3.2.1 / 4.3.2.1 (Ноэль Кларк, Марк Дэвис) [2010, триллер, комедия, криминал, BDRip 1080p] [DUB+DVO+AVO] pb.wtf

4.3.2.1 через торрент pb.wtf

Раздают: 8 [ 0 KB/s ]
Размер: 9.92 GB | Добавлен: 1 мес. 15 д. назад | Торрент скачан:133 раза
Скачать  

06-09-2020 08:34 4.3.2.1 Скачать торрент  


4.3.2.1 / 4.3.2.1


Год выхода: 2010
Страна: Великобритания
Жанр: триллер, комедия, криминал
Продолжительность: 01:56:42
Перевод:
  • Профессиональный (дублированный) МОСФИЛЬМ-мастер
  • Любительский (двухголосый, закадровый) Интерфильм
  • Авторский (одноголосый, закадровый) Киреев Антон
    Субтитры: Английские (SDH)

    Режиссер: Ноэль Кларк, Марк Дэвис

    В ролях: Офелия Ловибонд, Шаника Уоррен-Мерленд, Эмма Робертс, Тэмзин Эджертон, Эндрю Миллс, Адам Дикон, Эшли Томас, Бен Кук, Стивен Кри, Майкл Хантер, ...

    О фильме: В то время как Джоанн приходится работать в супермаркете, остальные поглощены своими приключениями: Кассандра стремится в Нью-Йорк, чтобы встретиться с другом из Интернета; Кэррис борется за права женщин, а Шэннон направляется на встречу с отцом. Но сама судьба сталкивает их отдельные миры и друг друга. У 4-х девушек всего 3 дня, которые они никогда не забудут и 2 города, которые они посетят, то есть… если они выживут…



    Качество: BDRip 1080p
    Формат: MKV
    Видео: 1920x812, x264, 9000 kbps, 23,976 fps
    Аудио #1: AC-3, 6 ch, 384 kbps (Rus) - Dub МОСФИЛЬМ-мастер
    Аудио #2: AC-3, 6 ch, 640 kbps (Rus) - DVO Интерфильм
    Аудио #3: AC-3, 6 ch, 640 kbps (Rus) - AVO Киреев Антон
    Аудио #4: DTS, 6 ch, 1509 kbps (Eng)
    x264 [info]: frame I:1495 Avg QP:16.97 size:171067

    x264 [info]: frame P:42062 Avg QP:19.87 size: 73409

    x264 [info]: frame B:124347 Avg QP:21.42 size: 36405

    x264 [info]: consecutive B-frames: 3.8% 6.1% 5.7% 40.5% 5.4% 30.1% 1.2% 5.5% 0.2% 1.3% 0.3%

    Общее

    Уникальный идентификатор : 217883851695126773214420408482353709427 (0xA3EAE747B33C00678D36C40087F90173)

    Полное имя : 4.3.2.1 (4.3.2.1) 2010 BDRip 1080p.mkv

    Формат : Matroska

    Версия формата : Version 2

    Размер файла : 9,92 Гбайт

    Продолжительность : 1 ч. 56 м.

    Общий поток : 12,2 Мбит/сек

    Дата кодирования : UTC 2016-03-11 10:32:27

    Программа кодирования : mkvmerge v4.0.0 ('The Stars were mine') сборка от Jun 6 2010 16:18:42

    Библиотека кодирования : libebml v1.0.0 + libmatroska v1.0.0

    Видео

    Идентификатор : 1

    Формат : AVC

    Формат/Информация : Advanced Video Codec

    Профиль формата : High@L4.1

    Параметр CABAC формата : Да

    Параметр ReFrames формата : 5 кадров

    Идентификатор кодека : V_MPEG4/ISO/AVC

    Продолжительность : 1 ч. 56 м.

    Битрейт : 9000 Кбит/сек

    Ширина : 1920 пикселей

    Высота : 812 пикселей

    Соотношение сторон : 2,35:1

    Режим частоты кадров : Постоянный

    Частота кадров : 23,976 кадра/сек

    Цветовое пространство : YUV

    Субдискретизация насыщенности : 4:2:0

    Битовая глубина : 8 бит

    Тип развёртки : Прогрессивная

    Бит/(Пиксели*Кадры) : 0.241

    Размер потока : 7,14 Гбайт (72%)

    Библиотека кодирования : x264 core 146 r2538 121396c

    Настройки программы : cabac=1 / ref=5 / deblock=1:-3:-3 / analyse=0x3:0x133 / me=umh / subme=11 / psy=1 / psy_rd=1.00:0.00 / mixed_ref=1 / me_range=32 / chroma_me=1 / trellis=2 / 8x8dct=1 / cqm=0 / deadzone=21,11 / fast_pskip=0 / chroma_qp_offset=-2 / threads=12 / lookahead_threads=2 / sliced_threads=0 / nr=0 / decimate=0 / interlaced=0 / bluray_compat=0 / constrained_intra=0 / bframes=10 / b_pyramid=2 / b_adapt=2 / b_bias=0 / direct=3 / weightb=1 / open_gop=0 / weightp=2 / keyint=240 / keyint_min=23 / scenecut=40 / intra_refresh=0 / rc=2pass / mbtree=0 / bitrate=9000 / ratetol=1.0 / qcomp=0.60 / qpmin=0 / qpmax=69 / qpstep=4 / cplxblur=20.0 / qblur=0.5 / ip_ratio=1.40 / pb_ratio=1.30 / aq=1:0.80

    Язык : English

    Default : Нет

    Forced : Нет

    Аудио #1

    Идентификатор : 2

    Формат : AC-3

    Формат/Информация : Audio Coding 3

    Расширение режима : CM (complete main)

    Параметр Endianness формата : Big

    Идентификатор кодека : A_AC3

    Продолжительность : 1 ч. 56 м.

    Вид битрейта : Постоянный

    Битрейт : 384 Кбит/сек

    Каналы : 6 каналов

    Расположение каналов : Front: L C R, Side: L R, LFE

    Частота : 48,0 КГц

    Метод сжатия : С потерями

    Размер потока : 321 Мбайт (3%)

    Заголовок : Dub МОСФИЛЬМ-мастер

    Язык : Russian

    Default : Нет

    Forced : Нет

    Аудио #2

    Идентификатор : 3

    Формат : AC-3

    Формат/Информация : Audio Coding 3

    Расширение режима : CM (complete main)

    Параметр Endianness формата : Big

    Идентификатор кодека : A_AC3

    Продолжительность : 1 ч. 56 м.

    Вид битрейта : Постоянный

    Битрейт : 640 Кбит/сек

    Каналы : 6 каналов

    Расположение каналов : Front: L C R, Side: L R, LFE

    Частота : 48,0 КГц

    Метод сжатия : С потерями

    Размер потока : 534 Мбайт (5%)

    Заголовок : DVOL Интерфильм

    Язык : Russian

    Default : Нет

    Forced : Нет

    Аудио #3

    Идентификатор : 4

    Формат : AC-3

    Формат/Информация : Audio Coding 3

    Расширение режима : CM (complete main)

    Параметр Endianness формата : Big

    Идентификатор кодека : A_AC3

    Продолжительность : 1 ч. 56 м.

    Вид битрейта : Постоянный

    Битрейт : 640 Кбит/сек

    Каналы : 6 каналов

    Расположение каналов : Front: L C R, Side: L R, LFE

    Частота : 48,0 КГц

    Метод сжатия : С потерями

    Размер потока : 534 Мбайт (5%)

    Заголовок : AVO Киреев Антон

    Язык : Russian

    Default : Нет

    Forced : Нет

    Аудио #4

    Идентификатор : 5

    Формат : DTS

    Формат/Информация : Digital Theater Systems

    Режим : 16

    Параметр Endianness формата : Big

    Идентификатор кодека : A_DTS

    Продолжительность : 1 ч. 56 м.

    Вид битрейта : Постоянный

    Битрейт : 1509 Кбит/сек

    Каналы : 6 каналов

    Расположение каналов : Front: L C R, Side: L R, LFE

    Частота : 48,0 КГц

    Битовая глубина : 16 бит

    Метод сжатия : С потерями

    Размер потока : 1,23 Гбайт (12%)

    Язык : English

    Default : Нет

    Forced : Нет

    Текст

    Идентификатор : 6

    Формат : UTF-8

    Идентификатор кодека : S_TEXT/UTF8

    Идентификатор кодека/Информация : UTF-8 Plain Text

    Язык : English

    Default : Нет

    Forced : Нет
    скриншот  скриншот  скриншот  скриншот  
    pb.wtf



  • Скачать 4.3.2.1 через торрент http://s013.radikal.ru/i324/1603/cf/a0a7d22139ac.jpg Скачать фильм 4.3.2.1 через торрент бесплантно в хорошем качестве О фильме: В то время как Джоанн приходится работать в супермаркете, остальные поглощены своими приключениями: Кассандра стремится в ... 10 10 8
    Торрент: Зарегистрирован [2020-09-06 08:34] · скачан: 133 раз
    Статус: √ проверено
    Размер: 9.92 GB
    Как cкачать? Как скачать 4.3.2.1 через торрент | qTorrent

    % Раздел Тема Автор DL S | L
    Сборники на DVD и Сиквелы [DVDrip, WEB-DLRip, HDrip, BDRip] [ 4.36 GB ] Звёздные войны 123456 / Star Wars [1977 1980 1983 1999 2002 2005 г HDTVRip-AVC] DUB - Мега-сборка на 1 DVD L_E_X Скачать
    1 | 0
    R.G.Resident - Игры [ 15.73 GB ] The Evil Within 2 [Repack RUS/MULTi10] Nemos Скачать
    1 | 0
    Наши сериалы [ 16.72 GB ] Ментовские войны 1 2 3 4 Эпило Полная Коллекция [] aspace Скачать
    1 | 0
    Зарубежные сериалы [ 66.76 GB ] Отчаянные домохозяйки / Desperate Housewives [2004-2010 г DVDRip HDTVRip] VAIO-RUS Скачать
    1 | 1
    Анти-шпионы и анти-трояны [ 67 MB ] Malwarebytes Anti-Malware Premium 3.4.4.2398 / 2.2.1.1043 RePack by elchupacabra [Ru/En/2018] DToretto777 Скачать
    1 | 0
    Программы для интернет и сетей [ 5 MB ] µTorrent Pack 1.8.5 / 2.0.4 / 2.2.1 / 3.5.3.44358 RePack by elchupacabra [Multi/Ru/2018] DToretto777 Скачать
    1 | 0
    Сборники на DVD и Сиквелы [DVDrip, WEB-DLRip, HDrip, BDRip] [ 13.08 GB ] Пила 123456 / Saw 123456 [2004-2009 BDRip] SD Скачать
    1 | 0

    28-11-2019 20:33  

    Отключить всю рекламу на сайте

    06-09-2020 14:12 4.3.2.1 Скачать торрент  

    Скриншоты многообещающие.pb.wtf



    06-09-2020 14:17 4.3.2.1 Скачать торрент  

    kickass duke писал(а):

    Скриншоты многообещающие.

    особенно первый, да pb.wtf



      Дорогой пользователь! Огромная просьба, поблагодарите релизера, оцените раздачу и оставьте свои комментарий, если Вы скачали 4.3.2.1 через торрент бесплатно! Внесите свою лепту в развитие PiratBit!
      Комментировать посты могут только пользователи прошедшие не сложную регистрацию
      Показать сообщения:    

      4.3.2.1 через торрент
      Скачать бесплатно 4.3.2.1
      4.3.2.1 скачать торрент
      4.3.2.1 смотреть онлайн
      Cкачать фильм 4.3.2.1 бесплатно
      4.3.2.1 скачать торрент в хорошем качестве
      4.3.2.1 смотреть онлайн бесплатно в хорошем качестве


      Вы не можете начинать темы
      Вы не можете отвечать на сообщения
      Вы не можете редактировать свои сообщения
      Вы не можете удалять свои сообщения
      Вы не можете голосовать в опросах
      Вы не можете прикреплять файлы к сообщениям
      Вы можете скачивать файлы