2 сезон

iTunes

MVO

1

2 сезон

iTunes

iTunes

1 сезон

RePack

30

Ultimate

ВАЖНО

ИГРА 18+

pack

RePack

MK11
pack

Легкие деньги

RePack

jed

RePack

fifa19

RePack

RDR2

RePack

NEED FOR SPEED™ PAYBACK

4 сезон

9 сезон

Бесстыжие 9 сезон

Все сериалы

все сериалы на PB.wtf

RePack

FAR CRY 5

Anonymous, доброе утро, мы не успеваем собрать деньги на оплату серверов за декабрь и январь, помогите нам пожалуйста в это трудное время. В качестве благодарности мы отключим Вам всю рекламу на сайте (укажите свой ник в строку Ваше имя)!

×
  
Magnet ссылка

Хищник / The Predator (Шейн Блэк) [2018 г., боевик, приключения, фантастика, BDRip 720p / 60 FPS, Дубляж] от R.G. HD-Films pb.wtf

Хищник через торрент pb.wtf

Раздают: 1 [ 0 KB/s ]
Размер: 3.7 GB | Добавлен: 4 мес. 9 д. назад | Торрент скачан:205 раз
Скачать  

06-09-2020 09:38 Хищник Скачать торрент  

Хищник / The Predator
Год выпуска: 2018
Страна: США, Канада
Жанр: боевик, приключения, фантастика
Продолжительность: 01:46:56
Перевод: Дубляж
Субтитры: Russian, English

Режиссер: Шейн Блэк

Бюджет: $88 000 000
Премьера в мире: 7 сентября 2018

rating

В ролях: Бойд Холбрук, Треванте Роудс, Джейкоб Трамбле, Кигэн-Майкл Ки, Оливия Манн, Стерлинг Браун, Томас Джейн, Элфи Оуэн-Аллен, Августо Агилера и др.

Описание: Главный герой, бывший военный, обнаруживает злобную инопланетную расу на Земле, но никто не верит ему, что эти твари существуют. Его сын-аутист, которого все обижают в школе, становится ключевой фигурой в схватке с Хищниками, поскольку мальчик умеет невероятно быстро учить языки и, судя по всему, сможет понять пришельцев.


Качество: BDRip 720p / 60 FPS
Формат: MKV
Видео кодек: H.264
Аудио кодек: AC3
Видео: x264, 1280 x 536 ( 2,40:1 ), 4576 kbps, 60,000 fps, ( 0.111 bpp)
Аудио#1: Русский, AC-3, 48.0 KHz, 6 ch, 384 Kbps
Релиз от:

скриншот   скриншот   скриншот   скриншот   скриншот  Автор рипа: slaventi-69
x264 [info]: frame I:2396 Avg QP:16.49 size: 72887
x264 [info]: frame P:87732 Avg QP:17.47 size: 18362
x264 [info]: frame B:294495 Avg QP:20.23 size: 6387
x264 [info]: consecutive B-frames: 2.1% 2.0% 6.9% 13.1% 64.1% 11.8%


Общее
Уникальный идентификатор : 206597193882180543013447637878986664342 (0x9B6D2C161CBEB925BB13C5D2F6766996)
Полное имя : F:\The.Predator.(2018).BDRip.720p.(60 Fps).mkv
Формат : Matroska
Версия формата : Version 4
Размер файла : 3,70 Гбайт
Продолжительность : 1 ч. 46 м.
Общий поток : 4960 Кбит/сек
Название фильма : Хищник / The Predator (2018) BDRip 720p (60 Fps)
Дата кодирования : UTC 2020-09-04 15:12:56
Программа кодирования : mkvmerge v9.1.0 ('Little Earthquakes') 64bit
Библиотека кодирования : libebml v1.3.3 + libmatroska v1.4.4

Видео
Идентификатор : 1
Формат : AVC
Формат/Информация : Advanced Video Codec
Профиль формата : High@L4.1
Настройки формата : CABAC / 8 Ref Frames
Параметр CABAC формата : Да
Параметр RefFrames формата : 8 кадров
Идентификатор кодека : V_MPEG4/ISO/AVC
Продолжительность : 1 ч. 46 м.
Битрейт : 4576 Кбит/сек
Ширина : 1280 пикселей
Высота : 536 пикселей
Соотношение сторон : 2,40:1
Режим частоты кадров : Постоянный
Частота кадров : 60,000 кадров/сек
Цветовое пространство : YUV
Субдискретизация насыщенности : 4:2:0
Битовая глубина : 8 бит
Тип развёртки : Прогрессивная
Бит/(Пиксели*Кадры) : 0.111
Размер потока : 3,41 Гбайт (92%)
Заголовок : slaventi-69 ( R.G. HD-Films | 60 fps )
Библиотека кодирования : x264 core 130 r2273 b3065e6
Настройки программы : cabac=1 / ref=9 / deblock=1:-1:-1 / analyse=0x3:0x113 / me=umh / subme=9 / psy=1 / psy_rd=1.00:0.00 / mixed_ref=1 / me_range=32 / chroma_me=1 / trellis=2 / 8x8dct=1 / cqm=0 / deadzone=21,11 / fast_pskip=0 / chroma_qp_offset=-2 / threads=10 / lookahead_threads=4 / sliced_threads=0 / nr=0 / decimate=1 / interlaced=0 / bluray_compat=0 / constrained_intra=0 / bframes=5 / b_pyramid=1 / b_adapt=2 / b_bias=0 / direct=2 / weightb=1 / open_gop=0 / weightp=2 / keyint=600 / keyint_min=23 / scenecut=40 / intra_refresh=0 / rc=crf / mbtree=0 / crf=17.3 / qcomp=0.60 / qpmin=0 / qpmax=69 / qpstep=4 / ip_ratio=1.40 / pb_ratio=1.30 / aq=1:1.00
Язык : English
Default : Да
Forced : Нет

Аудио
Идентификатор : 2
Формат : AC-3
Формат/Информация : Audio Coding 3
Коммерческое название : Dolby Digital
Идентификатор кодека : A_AC3
Продолжительность : 1 ч. 46 м.
Вид битрейта : Постоянный
Битрейт : 384 Кбит/сек
Каналы : 6 каналов
Channel layout : L R C LFE Ls Rs
Частота : 48,0 КГц
Частота кадров : 31,250 кадров/сек (1536 SPF)
Битовая глубина : 16 бит
Метод сжатия : С потерями
Размер потока : 293 Мбайт (8%)
Заголовок : Dub
Язык : Russian
ServiceKind/String : Complete Main
Default : Да
Forced : Нет

Текст #1
Идентификатор : 3
Формат : UTF-8
Идентификатор кодека : S_TEXT/UTF8
Идентификатор кодека/Информация : UTF-8 Plain Text
Продолжительность : 1 ч. 45 м.
Битрейт : 1 бит/сек
ElementCount : 22
Размер потока : 1,02 Кбайт (0%)
Заголовок : Forced
Язык : Russian
Default : Да
Forced : Да

Текст #2
Идентификатор : 4
Формат : UTF-8
Идентификатор кодека : S_TEXT/UTF8
Идентификатор кодека/Информация : UTF-8 Plain Text
Продолжительность : 1 ч. 45 м.
Битрейт : 70 бит/сек
ElementCount : 1270
Размер потока : 54,4 Кбайт (0%)
Заголовок : Full
Язык : Russian
Default : Нет
Forced : Нет

Текст #3
Идентификатор : 5
Формат : UTF-8
Идентификатор кодека : S_TEXT/UTF8
Идентификатор кодека/Информация : UTF-8 Plain Text
Продолжительность : 2 с. 461 мс.
Битрейт : 149 бит/сек
ElementCount : 1
Размер потока : 46,0 байт (0%)
Заголовок : Forced
Язык : English
Default : Нет
Forced : Нет

Текст #4
Идентификатор : 6
Формат : UTF-8
Идентификатор кодека : S_TEXT/UTF8
Идентификатор кодека/Информация : UTF-8 Plain Text
Продолжительность : 1 ч. 37 м.
Битрейт : 49 бит/сек
ElementCount : 1364
Размер потока : 35,6 Кбайт (0%)
Заголовок : Full
Язык : English
Default : Нет
Forced : Нет

Текст #5
Идентификатор : 7
Формат : UTF-8
Идентификатор кодека : S_TEXT/UTF8
Идентификатор кодека/Информация : UTF-8 Plain Text
Продолжительность : 1 ч. 38 м.
Битрейт : 59 бит/сек
ElementCount : 1705
Размер потока : 42,9 Кбайт (0%)
Заголовок : SDH
Язык : English
Default : Нет
Forced : Нет

Текст #6
Идентификатор : 8
Формат : UTF-8
Идентификатор кодека : S_TEXT/UTF8
Идентификатор кодека/Информация : UTF-8 Plain Text
Продолжительность : 1 ч. 38 м.
Битрейт : 123 бит/сек
ElementCount : 1705
Размер потока : 89,4 Кбайт (0%)
Заголовок : SDH-Colored
Язык : English
Default : Нет
Forced : Нет

Меню
00:00:00.000 : en:00:00:00.000
00:02:00.704 : en:00:02:00.704
00:08:32.929 : en:00:08:32.929
00:09:45.335 : en:00:09:45.335
00:13:47.660 : en:00:13:47.660
00:16:09.177 : en:00:16:09.177
00:17:36.430 : en:00:17:36.430
00:20:21.470 : en:00:20:21.470
00:25:01.959 : en:00:25:01.959
00:27:36.280 : en:00:27:36.280
00:31:10.077 : en:00:31:10.077
00:36:23.348 : en:00:36:23.348
00:38:00.653 : en:00:38:00.653
00:39:42.547 : en:00:39:42.547
00:44:34.714 : en:00:44:34.714
00:49:15.911 : en:00:49:15.911
00:53:18.612 : en:00:53:18.612
00:58:34.511 : en:00:58:34.511
00:59:58.512 : en:00:59:58.512
01:03:16.292 : en:01:03:16.292
01:06:36.826 : en:01:06:36.826
01:09:51.020 : en:01:09:51.020
01:12:26.634 : en:01:12:26.634
01:15:55.634 : en:01:15:55.634
01:18:52.686 : en:01:18:52.686
01:21:24.630 : en:01:21:24.630
01:23:08.942 : en:01:23:08.942
01:27:08.807 : en:01:27:08.807
01:30:55.241 : en:01:30:55.241
01:32:14.821 : en:01:32:14.821
01:35:08.411 : en:01:35:08.411
01:40:00.203 : en:01:40:00.203

Просьба к переливающим на другие сайты, в оформлении указывайте пожалуйста авторство группы R.G. HD-Films pb.wtf



Скачать Хищник через торрент http://img10.lostpic.net/2019/03/03/2aa9758c84387d93e87ce2844d0849b7.jpg Скачать фильм Хищник через торрент бесплантно в хорошем качестве Описание: Главный герой, бывший военный, обнаруживает злобную инопланетную расу на Земле, но никто не верит ему, что эти твари существуют. ... 8.2 10 11
Info! Золотая раздача, скачанное не засчитывается.
Торрент: Зарегистрирован [2020-09-06 09:38] · скачан: 205 раз
Статус: √ проверено
Размер: 3.7 GB
Как cкачать? Как скачать Хищник через торрент | UTorrent

28-11-2019 20:33  

Отключить всю рекламу на сайте

06-09-2020 09:56 Хищник Скачать торрент  

поставьте золото фильм супер!!!!!!!!!pb.wtf



06-09-2020 09:57 Хищник Скачать торрент  

ЧТО- ТО НЕ ИДЁТ РАЗДАЧА УВАЖАЕМЫЙ!!!pb.wtf



06-09-2020 10:07 Хищник Скачать торрент  

KDS писал(а):

ЧТО- ТО НЕ ИДЁТ РАЗДАЧА УВАЖАЕМЫЙ!!!

Простите но от меня все идет

скриншот  pb.wtf



06-09-2020 15:04 Хищник Скачать торрент  

ого.. это я не виделpb.wtf



07-09-2020 06:03 Хищник Скачать торрент  

Спасибо за не достающее! Жаль что не успел позолотить!!!pb.wtf



    Дорогой пользователь! Огромная просьба, поблагодарите релизера, оцените раздачу и оставьте свои комментарий, если Вы скачали Хищник через торрент бесплатно! Внесите свою лепту в развитие PiratBit!
    Комментировать посты могут только пользователи прошедшие не сложную регистрацию
    Показать сообщения:    

    Хищник через торрент
    Скачать бесплатно Хищник
    Хищник скачать торрент
    Хищник смотреть онлайн
    Cкачать фильм Хищник бесплатно
    Хищник скачать торрент в хорошем качестве
    Хищник смотреть онлайн бесплатно в хорошем качестве


    Вы не можете начинать темы
    Вы не можете отвечать на сообщения
    Вы не можете редактировать свои сообщения
    Вы не можете удалять свои сообщения
    Вы не можете голосовать в опросах
    Вы не можете прикреплять файлы к сообщениям
    Вы можете скачивать файлы