2 сезон

iTunes

MVO

1

2 сезон

iTunes

iTunes

1 сезон

RePack

30

Новинка

ВАЖНО

ИГРА 18+

pack

RePack

MK11
pack

Легкие деньги

RePack

jed

RePack

fifa19

RePack

RDR2

RePack

NEED FOR SPEED™ PAYBACK

4 сезон

9 сезон

Бесстыжие 9 сезон

Все сериалы

все сериалы на PB.wtf

RePack

FAR CRY 5

Anonymous, доброе утро, мы не успеваем собрать деньги на оплату серверов за декабрь и январь, помогите нам пожалуйста в это трудное время. В качестве благодарности мы отключим Вам всю рекламу на сайте (укажите свой ник в строку Ваше имя)!

×
  
Magnet ссылка

В смертельной опасности / On Deadly Ground (Стивен Сигал) [1994 г., Боевик, триллер, приключения, WEB-DLRip 720p / 60 FPS, Дубляж] от R.G. HD-Films pb.wtf

В смертельной опасности через торрент pb.wtf

Размер: 3.44 GB | Добавлен: 4 мес. 9 д. назад | Торрент скачан:25 раз
Скачать  

06-09-2020 15:01 В смертельной опасности Скачать торрент  

В смертельной опасности / On Deadly Ground
Год выпуска: 1994
Страна: США
Жанр: Боевик, триллер, приключения
Продолжительность: 01:41:41
Перевод: Дубляж (Мост-Видео)
Субтитры: Russian, English

Режиссер: Стивен Сигал

Бюджет: $50 000 000
Премьера в мире: 18 февраля 1994

rating

В ролях: Стивен Сигал, Майкл Кейн, Джоан Чен, Джон К. МакГинли, Р. Ли Эрми, Шейри Шэттак, Билли Боб Торнтон, Ричард Хэмилтон, Чиф Ирвин Бринк, Апангулук Чарли Кайрайуак

Описание: Форрест Тафт - это человек, который всегда выбирает только одну сторону. Тафт - специалист по борьбе с пожарами нефтяных скважин, но ему приходится вступать в еще более горячую битву, когда он сталкивается с Майклом Дженнингсом - хозяином нефтяной компании, на одной из буровых которой произошла авария, и нефть выливается в океан. Но нажива для таких людей превыше всего. И тогда Тафт дает им понять: если они причинят вред земле, которую он любит, они - в смертельной опасности.

Качество: WEB-DLRip 720p / 60 FPS
Формат: MKV
Видео кодек: H.264
Аудио кодек: AC3
Видео: x264, 1280 x 536 ( 2,40:1 ), 4463 kbps, 60,000 fps, ( 0.0.108 bpp)
Аудио#1: Русский, AC-3, 48.0 KHz, 6 ch, 384 Kbps DUB (Мост-Видео)
Релиз от:

скриншот   скриншот   скриншот   скриншот   скриншот   скриншот  Автор рипа: slaventi-69
x264 [info]: frame I:1772 Avg QP:15.55 size: 75200
x264 [info]: frame P:95483 Avg QP:16.41 size: 18514
x264 [info]: frame B:268406 Avg QP:18.96 size: 5585
x264 [info]: consecutive B-frames: 5.0% 2.7% 10.2% 14.9% 56.5% 10.6%


Общее
Уникальный идентификатор : 227968520973950924998845714561357540251 (0xAB8123DD1418769A9B49799B026F6B9B)
Полное имя : F:\On.Deadly.Ground.(1994).WEB-DL.720p.(60 Fps).mkv
Формат : Matroska
Версия формата : Version 4
Размер файла : 3,44 Гбайт
Продолжительность : 1 ч. 41 м.
Общий поток : 4851 Кбит/сек
Название фильма : В смертельной опасности / On Deadly Ground (1994) WEB-DL 720p (60 Fps)
Дата кодирования : UTC 2020-07-24 17:52:45
Программа кодирования : mkvmerge v12.0.0 ('Trust / Lust') 64bit
Библиотека кодирования : libebml v1.3.4 + libmatroska v1.4.5

Видео
Идентификатор : 1
Формат : AVC
Формат/Информация : Advanced Video Codec
Профиль формата : High@L4.1
Настройки формата : CABAC / 8 Ref Frames
Параметр CABAC формата : Да
Параметр RefFrames формата : 8 кадров
Идентификатор кодека : V_MPEG4/ISO/AVC
Продолжительность : 1 ч. 41 м.
Битрейт : 4463 Кбит/сек
Ширина : 1280 пикселей
Высота : 536 пикселей
Соотношение сторон : 2,40:1
Режим частоты кадров : Постоянный
Частота кадров : 60,000 кадров/сек
Цветовое пространство : YUV
Субдискретизация насыщенности : 4:2:0
Битовая глубина : 8 бит
Тип развёртки : Прогрессивная
Бит/(Пиксели*Кадры) : 0.108
Размер потока : 3,17 Гбайт (92%)
Заголовок : slaventi-69 ( R.G. HD-Films | 60 fps )
Библиотека кодирования : x264 core 130 r2273 b3065e6
Настройки программы : cabac=1 / ref=9 / deblock=1:-1:-1 / analyse=0x3:0x133 / me=umh / subme=9 / psy=1 / psy_rd=1.00:0.00 / mixed_ref=1 / me_range=32 / chroma_me=1 / trellis=2 / 8x8dct=1 / cqm=0 / deadzone=21,11 / fast_pskip=0 / chroma_qp_offset=-2 / threads=10 / lookahead_threads=4 / sliced_threads=0 / nr=0 / decimate=1 / interlaced=0 / bluray_compat=0 / constrained_intra=0 / bframes=5 / b_pyramid=1 / b_adapt=2 / b_bias=0 / direct=2 / weightb=1 / open_gop=0 / weightp=2 / keyint=600 / keyint_min=23 / scenecut=40 / intra_refresh=0 / rc=crf / mbtree=0 / crf=16.7 / qcomp=0.60 / qpmin=0 / qpmax=69 / qpstep=4 / ip_ratio=1.40 / pb_ratio=1.30 / aq=1:1.00
Язык : English
Default : Да
Forced : Нет

Аудио
Идентификатор : 2
Формат : AC-3
Формат/Информация : Audio Coding 3
Коммерческое название : Dolby Digital
Идентификатор кодека : A_AC3
Продолжительность : 1 ч. 41 м.
Вид битрейта : Постоянный
Битрейт : 384 Кбит/сек
Каналы : 6 каналов
Channel layout : L R C LFE Ls Rs
Частота : 48,0 КГц
Частота кадров : 31,250 кадров/сек (1536 SPF)
Битовая глубина : 16 бит
Метод сжатия : С потерями
Размер потока : 279 Мбайт (8%)
Заголовок : DUB (Мост-Видео)
Язык : Russian
ServiceKind/String : Complete Main
Default : Да
Forced : Нет

Текст #1
Идентификатор : 3
Формат : UTF-8
Идентификатор кодека : S_TEXT/UTF8
Идентификатор кодека/Информация : UTF-8 Plain Text
Продолжительность : 1 ч. 37 м.
Битрейт : 69 бит/сек
ElementCount : 1008
Размер потока : 49,3 Кбайт (0%)
Заголовок : Full
Язык : Russian
Default : Нет
Forced : Нет

Текст #2
Идентификатор : 4
Формат : UTF-8
Идентификатор кодека : S_TEXT/UTF8
Идентификатор кодека/Информация : UTF-8 Plain Text
Продолжительность : 1 ч. 35 м.
Битрейт : 49 бит/сек
ElementCount : 984
Размер потока : 34,8 Кбайт (0%)
Заголовок : Full
Язык : English
Default : Нет
Forced : Нет

Меню
00:00:00.000 : en:Wilderness Credits
00:02:21.000 : en:Blazing Disaster
00:07:18.000 : en:Finding Fault
00:08:19.000 : en:Abby's Rough Crowd
00:13:34.000 : en:Playing W/cupcake
00:17:24.000 : en:Aegis Oil Cares
00:19:35.000 : en:Rid Of Problems
00:21:52.000 : en:Unauthorized Access
00:24:41.000 : en:Last Of H. Palmer
00:29:08.000 : en:Oil Spill
00:31:55.000 : en:A Trap For Forrest
00:34:19.000 : en:Rescued
00:36:16.000 : en:Framed
00:37:23.000 : en:What Bear Would Say
00:42:34.000 : en:The Spirit Within
00:46:20.000 : en:The Chosen One
00:48:58.000 : en:Pulls The Trigger
00:51:20.000 : en:To Spirit Warrior
00:54:23.000 : en:Targets At Hugh's
00:58:13.000 : en:Outside Help
01:00:15.000 : en:What Really Matters
01:03:29.000 : en:Bait For Hunters
01:08:14.000 : en:Horseback Pursuit
01:12:51.000 : en:Inside Aegis One
01:17:12.000 : en:Reach And Touch
01:19:12.000 : en:A Professional
01:21:15.000 : en:Abandon Ship
01:23:02.000 : en:Target: The Rig
01:25:35.000 : en:His Aim Backfires
01:26:24.000 : en:Hand-to-hand Havoc
01:28:24.000 : en:Jennings Takes Fall
01:30:12.000 : en:Inferno
01:32:25.000 : en:To Do What's Right
01:36:42.000 : en:End Credits

Просьба к переливающим на другие сайты, в оформлении указывайте пожалуйста авторство группы R.G. HD-Films pb.wtf



Скачать В смертельной опасности через торрент http://lostpic.net/orig_images/2/5/9/259f9da9e7dd395872fedffa6a38d370.png Скачать фильм В смертельной опасности через торрент бесплантно в хорошем качестве Описание: Форрест Тафт - это человек, который всегда выбирает только одну сторону. Тафт - специалист по борьбе с пожарами нефтяных скважин, ... 10 10 4
Info! Золотая раздача, скачанное не засчитывается.
Торрент: Зарегистрирован [2020-09-06 15:01] · скачан: 25 раз
Статус: √ проверено
Размер: 3.44 GB
Как cкачать? Как скачать В смертельной опасности через торрент | UTorrent

28-11-2019 20:33  

Отключить всю рекламу на сайте

06-09-2020 15:07 В смертельной опасности Скачать торрент  

поставьте золото фильм топpb.wtf



07-09-2020 19:27 В смертельной опасности Скачать торрент  

Бумер писал(а):

поставьте золото фильм топ

Фильм супер-топ!!! Спасибо огромное за ожидаемый релиз!!! Почему его только на BD не выпустили - секретная тайна потайного тайника??? Благодарю, просто без слов!!!pb.wtf



    Дорогой пользователь! Огромная просьба, поблагодарите релизера, оцените раздачу и оставьте свои комментарий, если Вы скачали В смертельной опасности через торрент бесплатно! Внесите свою лепту в развитие PiratBit!
    Комментировать посты могут только пользователи прошедшие не сложную регистрацию
    Показать сообщения:    

    В смертельной опасности через торрент
    Скачать бесплатно В смертельной опасности
    В смертельной опасности скачать торрент
    В смертельной опасности смотреть онлайн
    Cкачать фильм В смертельной опасности бесплатно
    В смертельной опасности скачать торрент в хорошем качестве
    В смертельной опасности смотреть онлайн бесплатно в хорошем качестве


    Вы не можете начинать темы
    Вы не можете отвечать на сообщения
    Вы не можете редактировать свои сообщения
    Вы не можете удалять свои сообщения
    Вы не можете голосовать в опросах
    Вы не можете прикреплять файлы к сообщениям
    Вы можете скачивать файлы