2 сезон

iTunes

1 сезон

1

iTunes

iTunes

iTunes

1 сезон

RePack

30

ИГРА 18+

pack

ВАЖНО

!!Акция!!

Alien_RageХит недели

RePack

MK11
pack

Забери бонус

RePack

jed

!!Акция!!

Alien_Rage

RePack

fifa19

RePack

Assassins Creed: Odyssey

RePack

NEED FOR SPEED™ PAYBACK

4 сезон

9 сезон

Бесстыжие 9 сезон

Все сериалы

все сериалы на PB.wtf

RePack

FAR CRY 5
  

Дорога домой / Серии: 1-2 из 2 (Сергей Краснов) [2020, Мелодрама, SATRip] pb.wtf

Дорога домой через торрент pb.wtf

Раздают: 1 [ 6 KB/s ]
Размер: 2.36 GB | Добавлен: 1 мес. 23 д. назад | Торрент скачан:46 раз
Скачать  

06-09-2020 16:28 Дорога домой Скачать торрент  

Дорога домой
Год выпуска: 2020
Страна: Россия
Студия: Производство ООО «Кинокомпания Русское», НАО «Студия Лира»
Жанр: Мелодрама
Продолжительность: ~ 01:30:00
Субтитры: отсутствуют

Режиссер: Сергей Краснов



В ролях: Наталья Бергер, Артём Крылов, Антон Макарский, Александр Алёшкин, Юлия Ауг, Яна Гурьянова, Анфиса Вистингаузен, Екатерина Травова, Анастасия Городенцева, Алиса Мазурина

Описание: Дерзкая провинциалка Лена Журавлёва приехала в Москву за красивой жизнью. Но столица с первого раза не покорилась – все её достижения и планы рухнули в один момент. Лена возвращается домой, а чтобы не стать посмешищем в родном городке, разыгрывает спектакль: приезжает в шикарных нарядах и всем рассказывает, что работает на телевидении. Узнав, что её бывший парень Миша собирается жениться, Лена заключает пари, что без труда поссорит его с невестой. Задача оказывается не простой, но амбициозная Лена не может позволить себе проиграть и здесь. Её план приводит к настоящему преступлению.

Качество: SATRip
Формат: AVI

Видео: XviD, 720x400, ~ 1700 Кбит/с, 0.236 bit/pixel, 25 кадр/с
Аудио: МР3, 48,0 КГц, 2 ch, 192 Кбит/с
скриншот  скриншот  скриншот  скриншот  

Общее
Полное имя : D:\Дорога.Домой.XviD.2019.SATRip.7turza™\01.Дорога.Домой.7turza™.avi
Формат : AVI
Формат/Информация : Audio Video Interleave
Профиль формата : OpenDML
Размер файла : 1,20 Гбайт
Продолжительность : 1 ч. 30 м.
Общий поток : 1904 Кбит/сек
Название фильма : S01 E01 # from 7turza #
Программа кодирования : Lavf58.45.100

Видео
Идентификатор : 0
Формат : MPEG-4 Visual
Профиль формата : Advanced Simple@L5
Настройки формата : BVOP1
Параметр BVOP формата : 1
Параметр QPel формата : Нет
Параметр GMC формата : Без точки перехода
Параметр матрицы формата : Default (H.263)
Идентификатор кодека : XVID
Идентификатор кодека/Подсказка : XviD
Продолжительность : 1 ч. 30 м.
Битрейт : 1697 Кбит/сек
Ширина : 720 пикселей
Высота : 400 пикселей
Соотношение сторон : 16:9
Частота кадров : 25,000 кадров/сек
Цветовое пространство : YUV
Субдискретизация насыщенности : 4:2:0
Битовая глубина : 8 бит
Тип развёртки : Прогрессивная
Метод сжатия : С потерями
Бит/(Пиксели*Кадры) : 0.236
Размер потока : 1,07 Гбайт (89%)
Библиотека кодирования : XviD 69

Аудио
Идентификатор : 1
Формат : MPEG Audio
Версия формата : Version 1
Профиль формата : Layer 3
Настройки формата : Joint stereo
Идентификатор кодека : 55
Идентификатор кодека/Подсказка : MP3
Продолжительность : 1 ч. 30 м.
Вид битрейта : Постоянный
Битрейт : 192 Кбит/сек
Каналы : 2 канала
Частота : 48,0 КГц
Метод сжатия : С потерями
Размер потока : 124 Мбайт (10%)
Выравнивание : Соединение по промежуткам
Продолжительность промежутка : 24 мс. (0,60 видеокадр)
Библиотека кодирования : LAME3.10W!vtE+µG#%V0

pb.wtf



Скачать Дорога домой через торрент https://a.radikal.ru/a10/2009/49/756b37cd1c54.jpg Скачать фильм Дорога домой через торрент бесплантно в хорошем качестве Описание: Дерзкая провинциалка Лена Журавлёва приехала в Москву за красивой жизнью. Но столица с первого раза не покорилась – все её ... 10 10 4
Торрент: Зарегистрирован [2020-09-06 16:28] · скачан: 46 раз
Статус: √ проверено
Размер: 2.36 GB
Как cкачать? Как скачать Дорога домой через торрент | qTorrent

% Раздел Тема Автор DL S | L
Наши сериалы [ 9.51 GB ] Дорога домой / Серии: 1-2 из 2 [2020 Мело HDTV 1080i] bober100 Скачать
1 | 0

28-11-2019 20:33  

Отключить всю рекламу на сайте

    Дорогой пользователь! Огромная просьба, поблагодарите релизера, оцените раздачу и оставьте свои комментарий, если Вы скачали Дорога домой через торрент бесплатно! Внесите свою лепту в развитие PiratBit!
    Комментировать посты могут только пользователи прошедшие не сложную регистрацию
    Показать сообщения:    

    Дорога домой через торрент
    Скачать бесплатно Дорога домой
    Дорога домой скачать торрент
    Дорога домой смотреть онлайн
    Cкачать фильм Дорога домой бесплатно
    Дорога домой скачать торрент в хорошем качестве
    Дорога домой смотреть онлайн бесплатно в хорошем качестве


    Вы не можете начинать темы
    Вы не можете отвечать на сообщения
    Вы не можете редактировать свои сообщения
    Вы не можете удалять свои сообщения
    Вы не можете голосовать в опросах
    Вы не можете прикреплять файлы к сообщениям
    Вы можете скачивать файлы