Всегда рабочее зеркало без VPN и Proxy просто перед .vidak.icu напиши любое слово или цифру, Пример http://nyom.vidak.icu

MVO

Лицензия

1 сезон

1

1 сезон

iTunes

1 сезон

13

1 сезон

Deluxe

pack

Рекомендуем

Repack

30

ВАЖНО

RePack

MK11

RePack

jed

RePack

fifa19

RePack

RDR2

RePack

NEED FOR SPEED™ PAYBACK

Кинопоиск HD

6 сезон

 Острые козырьки 6 сезон

Все сериалы

все сериалы на PB.wtf

RePack

FAR CRY 5
  
Magnet ссылка

Шугалей 2 (Максим Бриус) [2020 г., Боевик, приключения, HDTV (1080i) Оригинал] pb.wtf

Шугалей 2 через торрент pb.wtf

Размер: 4.18 GB | Добавлен: 1 год 9 мес. назад | Торрент скачан:122 раза
Смотреть онлайн Шугалей 2 | Скачать    Ребята, помогите собрать деньги на оплату серверов!!!

06-09-2020 21:00 Шугалей 2 Скачать торрент  

Шугалей 2
Год выпуска: 2020
Страна: Россия
Жанр: Боевик, приключения
Продолжительность: 01:59:04
Перевод: Оригинал
Субтитры: нет

Режиссер: Максим Бриус

В ролях: Кирилл Полухин, Олег Абалян, Сергей Яценюк, Геннадий Яковлев

Описание: Фильм основан на реальных событиях и рассказывает о российском социологе Максиме Шугалее и его коллеге, переводчике Самере Суэйфане, похищенных в мае 2019 года в Ливии и незаконно удерживаемых в тюрьме в Триполи. Российского социолога Максима Шугалея и его коллегу, переводчика Самера Суэйфана все еще удерживают в ливийской тюрьме «Митига». Больше года заключенных избивают, привязывают к столбам на палящем солнце, а карцеры в тюрьме настолько малы, что спать в них можно только сидя. Несмотря на все, Шугалей продолжает работать. Он иногда получает информацию извне и пытается разобраться в действиях террористических организаций. Собранные ученым данные опасны для ливийских боевиков, и они хотят дискредитировать Шугалея: по их заданию журналисты используют все ресурсы, чтобы выставить Максима шпионом. В это время Шугалей находит способ передать полученную информацию на родину. Тогда боевики предлагают Максиму сделку: если он признает себя шпионом и покается, то сможет вернуться домой и снова увидеть родных.

Качество: HDTV (1080i)
Формат: TS
Видео кодек: AVC
Аудио кодек: MP2
Видео: MPEG-4 AVC, (1920x1080),4582 Кбит/с, 25.000 кадра/сек
Аудио#1: MP2, 2 ch, 192 kbps (Rus) 48.0 KHz Оригинал
скриншот   скриншот   скриншот  

Имя файла: Шугалей 2 .2020.HDTV.(1080i)..ts
Формат файла: .ts (MPEG-TS)
Размер файла: 4,18 GB (4 487 022 884 bytes)
Длительность: 1h 59mn
Навигация по главам: Нет
Битрейт (все потоки): 5 024 Kbps
Тип битрейта (все потоки): Variable
Обложка: Отсутствует
:
Название: Шугалей 2 .2020.HDTV.(1080i).
:
Тип потока: Видео
Длительность: 01:59:04
Кодек: AVC
Кодек/описание: Advanced Video Codec
Кодек/профиль: [email protected]
Кодек/ID: 27
Кодек/CABAC: Yes
Кодек/ReFrames: 4 frames
Размеры изображения: 1920 x 1080 (16:9)
Частота кадров: 25.000 fps
Размер потока: 3.81 GiB (91%)
Битрейт: 4 582 Kbps
Стандарт: Component
Цветовое пространство: YUV
Тип развёртки: Interlaced
Колориметрия: 4:2:0
Глубина: 8 bits
:
Тип потока: Звук #1
Язык: Russian
Длительность: 01:59:04.416
Кодек: MPEG Audio
Кодек/профиль: Layer 2
Кодек/ID: 3
Частота дискретизации: 48.0 KHz
Каналов: 2 channels
Битрейт: 192 Kbps
Битрейт/тип: Constant
Размер потока: 164 MiB (4%)
Метод сжатия: Lossy

pb.wtf



Скачать Шугалей 2 через торрент https://pic1.kartinco.top/images/12/e1jyl.jpg Скачать, смотреть онлайн Шугалей 2 бесплантно в хорошем качестве Описание: Фильм основан на реальных событиях и рассказывает о российском социологе Максиме Шугалее и его коллеге, переводчике Самере ... 9.1 10 10
Торрент: Зарегистрирован [2020-09-06 21:00] · скачан: 122 раз
Статус: √ проверено
Размер: 4.18 GB
Как cкачать? Как скачать Шугалей 2 через торрент | UTorrent

28-11-2019 20:33  

Отключить всю рекламу на сайте

    Дорогой пользователь! Огромная просьба, поблагодарите релизера, оцените раздачу и оставьте свои комментарий, если Вы скачали Шугалей 2 через торрент бесплатно!
    Комментировать посты могут только пользователи прошедшие не сложную регистрацию
    Показать сообщения:    

    Шугалей 2 через торрент
    Скачать бесплатно Шугалей 2
    Шугалей 2 скачать торрент
    Шугалей 2 смотреть онлайн
    Cкачать фильм Шугалей 2 бесплатно
    Шугалей 2 скачать торрент в хорошем качестве
    Шугалей 2 смотреть онлайн бесплатно в хорошем качестве


    Вы не можете начинать темы
    Вы не можете отвечать на сообщения
    Вы не можете редактировать свои сообщения
    Вы не можете удалять свои сообщения
    Вы не можете голосовать в опросах
    Вы не можете прикреплять файлы к сообщениям
    Вы можете скачивать файлы