Ссылка на приватное зеркало нашего сайта всего за 1$. Внимание количество ограничено!!!

2 сезон

iTunes

1 сезон

1

2 сезон

2 сезон

iTunes

1 сезон

RePack

30

Ultimate

ВАЖНО

ИГРА 18+

pack

RePack

MK11
pack

Забери бонус

RePack

jed

!!Акция!!

Alien_Rage

RePack

fifa19

RePack

Assassins Creed: Odyssey

RePack

NEED FOR SPEED™ PAYBACK

4 сезон

9 сезон

Бесстыжие 9 сезон

Все сериалы

все сериалы на PB.wtf

RePack

FAR CRY 5
  

Дружить по-русски! / Inséparables (Варант Суджян) [2019, Комедия, BDRip 720p] DUB [iTunes] pb.wtf

Дружить по-русски! через торрент pb.wtf

Раздают: 3 [ 0 KB/s ]
Размер: 4.63 GB | Добавлен: 2 мес. 20 д. назад | Торрент скачан:181 раз
Скачать  

07-09-2020 01:55 Дружить по-русски! Скачать торрент  

Дружить по-русски! | Inséparables
Год выпуска: 2019
Страна: Франция
Студия: CCJ Films, M6 Films, SND Groupe M6
Жанр: Комедия
Продолжительность: 01:37:05
Перевод: Дублированный | iTunes
Субтитры: отсутствуют

Режиссер: Варант Суджян

rating

В ролях: Ахмед Силла, Альбан Иванов, Жюдит Эль Зейн, Орнелла Флёри, Амир Эль Касем, Кристиан Бюжо, Давид Салль, Жан-Филипп Риччи, Пьер-Мари Москони, Лоранс Яэль

Описание: Если ты родился во Франции, но c русской душой — ты веришь в дружбу и всегда приходишь на помощь, можешь собрать ППШ с закрытыми глазами и готов на оскорбление ответить ударом в зубы. И даже если ты чистокровный француз, ты знаешь — русские своих не бросают!

Качество: BDRip 720p
Формат: MKV

Видео: MPEG-4 AVC, 1280x536, 4939 Кbit/s, 24.000 fps
Аудио #01: 48 kHz, AC3, 5.1, 384 Kbps | iTunes | RUS |
Аудио #02: 48 kHz, DTS, 5.1, 1510 Kbps | Оригинал | FRE |
скриншот  скриншот  скриншот  скриншот  скриншот  

General
Unique ID: 75664603358873938248255713792897717372 (0x38EC78F7FB5F38338E187D4E15F6147C)
Complete name: D:Video111Inseparables.2019.BDRip.720p.seleZen.mkv
Format: Matroska
Format version: Version 4
File size: 4.63 GiB
Duration: 1 h 37 min
Overall bit rate: 6 831 kb/s
Movie name: Inseparables 2019 from селезень
Encoded date: UTC 2020-09-06 20:48:21
Writing application: mkvmerge v40.0.0 ('Old Town Road + Pony') 64-bit
Writing library: libebml v1.3.9 + libmatroska v1.5.2

Video
ID: 1
Format: AVC
Format/Info: Advanced Video Codec
Format profile: High@L4.1
Format settings: CABAC / 5 Ref Frames
Format settings, CABAC: Yes
Format settings, Reference: 5 frames
Codec ID: V_MPEG4/ISO/AVC
Duration: 1 h 37 min
Bit rate: 4 939 kb/s
Width: 1 280 pixels
Height: 536 pixels
Display aspect ratio: 2.40:1
Frame rate mode: Constant
Frame rate: 24.000 FPS
Color space: YUV
Chroma subsampling: 4:2:0
Bit depth: 8 bits
Scan type: Progressive
Bits/(Pixel*Frame): 0.300
Stream size: 3.35 GiB (72%)
Writing library: x264 core 157 r2969 d4099dd
Encoding settings: cabac=1 / ref=5 / deblock=1:-3:-3 / analyse=0x3:0x113 / me=umh / subme=10 / psy=1 / psy_rd=1.00:0.00 / mixed_ref=1 / me_range=24 / chroma_me=1 / trellis=2 / 8x8dct=1 / cqm=0 / deadzone=21, 11 / fast_pskip=1 / chroma_qp_offset=-2 / threads=17 / lookahead_threads=4 / sliced_threads=0 / nr=0 / decimate=1 / interlaced=0 / bluray_compat=0 / constrained_intra=0 / bframes=8 / b_pyramid=2 / b_adapt=2 / b_bias=0 / direct=3 / weightb=1 / open_gop=0 / weightp=2 / keyint=240 / keyint_min=24 / scenecut=40 / intra_refresh=0 / rc_lookahead=60 / rc=2pass / mbtree=1 / bitrate=4939 / ratetol=1.0 / qcomp=0.60 / qpmin=0 / qpmax=69 / qpstep=4 / cplxblur=20.0 / qblur=0.5 / ip_ratio=1.40 / aq=1:1.00
Language: French
Default: Yes
Forced: No
Color range: Limited
Color primaries: BT.709
Transfer characteristics: BT.709
Matrix coefficients: BT.709

Audio #1
ID: 2
Format: AC-3
Format/Info: Audio Coding 3
Commercial name: Dolby Digital
Codec ID: A_AC3
Duration: 1 h 37 min
Bit rate mode: Constant
Bit rate: 384 kb/s
Channel(s): 6 channels
Channel layout: L R C LFE Ls Rs
Sampling rate: 48.0 kHz
Frame rate: 31.250 FPS (1536 SPF)
Compression mode: Lossy
Stream size: 267 MiB (6%)
Title: iTunes
Language: Russian
Service kind: Complete Main
Default: Yes
Forced: Yes

Audio #2
ID: 3
Format: DTS
Format/Info: Digital Theater Systems
Codec ID: A_DTS
Duration: 1 h 37 min
Bit rate mode: Constant
Bit rate: 1 509 kb/s
Channel(s): 6 channels
Channel layout: C L R Ls Rs LFE
Sampling rate: 48.0 kHz
Frame rate: 93.750 FPS (512 SPF)
Bit depth: 24 bits
Compression mode: Lossy
Stream size: 1.02 GiB (22%)
Title: Original
Language: French
Default: No
Forced: No

Menu
00:00:00.000: :Chapitre 01
00:09:21.500: :Chapitre 02
00:17:46.542: :Chapitre 03
00:26:15.000: :Chapitre 04
00:36:21.208: :Chapitre 05
00:45:14.000: :Chapitre 06
00:53:52.542: :Chapitre 07
01:04:53.083: :Chapitre 08
01:10:33.208: :Chapitre 09
01:19:15.583: :Chapitre 10
01:28:23.542: :Chapitre 11
01:33:54.625: :Chapitre 12
01:37:04.792: :Chapitre 13

pb.wtf



Скачать Дружить по-русски! через торрент https://i112.fastpic.ru/big/2020/0907/f8/3cb3caa482417065e45a5219753dfff8.jpg Скачать фильм Дружить по-русски! через торрент бесплантно в хорошем качестве Описание: Если ты родился во Франции, но c русской душой — ты веришь в дружбу и всегда приходишь на помощь, можешь собрать ППШ с закрытыми ... 10 10 5
Info! Золотая раздача, скачанное не засчитывается.
Торрент: Зарегистрирован [2020-09-07 01:55] · скачан: 181 раз
Статус: √ проверено
Размер: 4.63 GB
Как cкачать? Как скачать Дружить по-русски! через торрент | qTorrent

% Раздел Тема Автор DL S | L
Фильмы 2019-2020 [DVDrip, WEB-DLRip, HDrip] (DUB, MVO) [ 1.42 GB ] Дружить по-русски! / Inseparables [2019 BDRip] - Twi7ter Скачать
124 | 5
Фильмы 2019-2020 [DVDrip, WEB-DLRip, HDrip] (DUB, MVO) [ 744 MB ] Дружить по-русски! / Inséparables [2019 HDRip] bober100 Скачать
4 | 0
Фильмы 2019-2020 [DVDrip, WEB-DLRip, HDrip] (DUB, MVO) [ 751 MB ] Дружить по-русски! / Inséparables [2019 HDRip-AVC] от MediaBit Lithuania Скачать
2 | 0
Фильмы 2019-2020 [DVDrip, WEB-DLRip, HDrip] (DUB, MVO) [ 2.13 GB ] Дружить по-русски! / Inséparables [2019 BDRip-AVC] bober100 Скачать
9 | 0
Фильмы (Blu-ray, BD-Remux, HDDVD) [ 22.98 GB ] Дружить по-русски! / Inséparables [2019 BD Remux 1080p] bober100 Скачать
1 | 0
Фильмы [HD 720p, 1080p] (Хороший звук DUB, MVO) [ 9.09 GB ] Дружить по-русски! / Inséparables [2019 BDRip 1080p] bober100 Скачать
12 | 0
Фильмы 2019-2020 [DVDrip, WEB-DLRip, HDrip] (DUB, MVO) [ 1.46 GB ] Дружить по-русски! / Inséparables [2019 BDRip] bober100 Скачать
5 | 0

28-11-2019 20:33  

Отключить всю рекламу на сайте

    Дорогой пользователь! Огромная просьба, поблагодарите релизера, оцените раздачу и оставьте свои комментарий, если Вы скачали Дружить по-русски! через торрент бесплатно! Внесите свою лепту в развитие PiratBit!
    Комментировать посты могут только пользователи прошедшие не сложную регистрацию
    Показать сообщения:    

    Дружить по-русски! через торрент
    Скачать бесплатно Дружить по-русски!
    Дружить по-русски! скачать торрент
    Дружить по-русски! смотреть онлайн
    Cкачать фильм Дружить по-русски! бесплатно
    Дружить по-русски! скачать торрент в хорошем качестве
    Дружить по-русски! смотреть онлайн бесплатно в хорошем качестве


    Вы не можете начинать темы
    Вы не можете отвечать на сообщения
    Вы не можете редактировать свои сообщения
    Вы не можете удалять свои сообщения
    Вы не можете голосовать в опросах
    Вы не можете прикреплять файлы к сообщениям
    Вы можете скачивать файлы